Закляття. Наші дні / The Crucifixion (2017) Remux 1080p Ukr/Eng | Sub Eng

Нові коментарі

Нова тема   Відповісти
Автор Повідомлення
staf777 
Відео Гуртом - підтримка та поширення
Відео Гуртом - підтримка та поширення


З нами з: 16.11.16
Востаннє: 25.09.20
Повідомлень: 4034

2018-12-03 09:23  
Закляття. Наші дні / The Crucifixion (2017) Remux 1080p Ukr/Eng | Sub Eng


«Екзорцизм - ритуал демона»



Жанр: детектив, жахи, трилер
Країна: США, Велика Британія, Румунія



Кінокомпанія: Motion Picture Capital,Poznan Film Group,Premiere Picture
Режисер: Ксав'є Жанс
Актори: Софі Куксон, Корнеліу Уліч, Бріттані Ешворт, Хав'єр Ботет, Іван Гонсалес

Сюжет:
Священика ув'язнюють за вбивство черниці, над якою він проводив обряд екзорцизму. Допитлива журналістка намагається з'ясувати, чи вбив той психічно хвору жінку, чи дійсно програв бій з демонічною сутністю.


Тривалість: 01:29:54
Якість: Remux 1080p

Відео:
кодек:
розмір кадру: 1920x1080
бітрейт: 24,9 Мбіт/с

Аудіо # 1:
мова: українська
переклад: професійний дубльований
кодек: -HD MA 5.1
бітрейт: 3463 Кбіт/с

Аудіо # 2:
мова: українська
переклад: професійний дубльований
кодек: 5.1
бітрейт: 1509 Кбіт/с

Аудіо # 3:
мова: українська
переклад: професійний дубльований
кодек: 5.1
бітрейт: 640 Кбіт/с

Аудіо # 4:
мова: англійська
переклад: оригінал
кодек: -HD MA 5.1
бітрейт: 3999 кб/с

Субтитри:
мова: англійська
тип: програмні (м'які)
формат: *.srt
Info
Код:

General
Unique ID                   : 22154867527730407234720746615948278237 (0x10AADF4DA5CB3858B1C96BBFE47179DD)
Complete name               : Z:\Фільми в HD\Жахи\The Crucifixion (2017) Remux 1080p [UKR][ENG][Hurtom].
Format                      :
Format version              : Version 4
File size                   : 21.3 GiB
Duration                    : 1 h 29 min
Overall bit rate mode       : Variable
Overall bit rate            : 33.9 Mb/s
Movie name                  : Закляття. Наші дні / The Crucifixion (2017) Remux 1080p [UKR][ENG][Hurtom]
Encoded date                : UTC 2020-05-16 16:52:41
Writing application         : v46.0.0 ('No Deeper Escape') 64-bit
Writing library             : libebml v1.3.10 + v1.5.2
Cover                       : Yes
Attachments                 : cover.jpg

Video
ID                          : 1
Format                      : AVC
Format/Info                 : Advanced Video Codec
Format profile              : [email protected]
Format settings             : CABAC / 4 Ref Frames
Format settings, CABAC      : Yes
Format settings, Reference  : 4 frames
Codec ID                    : V_MPEG4/ISO/AVC
Duration                    : 1 h 29 min
Bit rate mode               : Variable
Bit rate                    : 24.9 Mb/s
Maximum bit rate            : 37.0 Mb/s
Width                       : 1 920 pixels
Height                      : 1 080 pixels
Display aspect ratio        : 16:9
Frame rate mode             : Constant
Frame rate                  : 23.976 (24000/1001) FPS
Color space                 : YUV
Chroma subsampling          : 4:2:0
Bit depth                   : 8 bits
Scan type                   : Progressive
Bits/(Pixel*Frame)          : 0.501
Stream size                 : 15.6 GiB (73%)
Language                    : English
Default                     : Yes
Forced                      : No

Audio #1
ID                          : 2
Format                      : XLL
Format/Info                 : Digital Theater Systems
Commercial name             : -HD Master Audio
Codec ID                    : A_DTS
Duration                    : 1 h 29 min
Bit rate mode               : Variable
Bit rate                    : 3 463 kb/s
Channel(s)                  : 6 channels
Channel layout              : C L R Ls Rs LFE
Sampling rate               : 48.0 kHz
Frame rate                  : 93.750 FPS (512 SPF)
Bit depth                   : 24 bits
Compression mode            : Lossless
Stream size                 : 2.17 GiB (10%)
Title                       : -HD MA 5.1 @ 3 463 kb/s
Language                    : Ukrainian
Default                     : Yes
Forced                      : Yes

Audio #2
ID                          : 3
Format                      :
Format/Info                 : Digital Theater Systems
Codec ID                    : A_DTS
Duration                    : 1 h 29 min
Bit rate mode               : Constant
Bit rate                    : 1 509 kb/s
Channel(s)                  : 6 channels
Channel layout              : C L R Ls Rs LFE
Sampling rate               : 48.0 kHz
Frame rate                  : 93.750 FPS (512 SPF)
Bit depth                   : 24 bits
Compression mode            : Lossy
Stream size                 : 970 MiB (4%)
Title                       : 5.1 @ 1 509 kb/s
Language                    : Ukrainian
Default                     : No
Forced                      : No

Audio #3
ID                          : 4
Format                      : AC-3
Format/Info                 : Audio Coding 3
Commercial name             : Dolby Digital
Codec ID                    : A_AC3
Duration                    : 1 h 29 min
Bit rate mode               : Constant
Bit rate                    : 640 kb/s
Channel(s)                  : 6 channels
Channel layout              : L R C LFE Ls Rs
Sampling rate               : 48.0 kHz
Frame rate                  : 31.250 FPS (1536 SPF)
Compression mode            : Lossy
Stream size                 : 412 MiB (2%)
Title                       : 5.1 @ 640 kb/s
Language                    : Ukrainian
Service kind                : Complete Main
Default                     : No
Forced                      : No

Audio #4
ID                          : 5
Format                      : XLL
Format/Info                 : Digital Theater Systems
Commercial name             : -HD Master Audio
Codec ID                    : A_DTS
Duration                    : 1 h 29 min
Bit rate mode               : Variable
Bit rate                    : 3 399 kb/s
Channel(s)                  : 6 channels
Channel layout              : C L R Ls Rs LFE
Sampling rate               : 48.0 kHz
Frame rate                  : 93.750 FPS (512 SPF)
Bit depth                   : 24 bits
Compression mode            : Lossless
Stream size                 : 2.13 GiB (10%)
Title                       : Original -HD MA 5.1 @ 3 399 kb/s
Language                    : English
Default                     : No
Forced                      : No

Text
ID                          : 6
Format                      : UTF-8
Codec ID                    : S_TEXT/UTF8
Codec ID/Info               : UTF-8 Plain Text
Duration                    : 1 h 21 min
Bit rate                    : 44 b/s
Count of elements           : 614
Stream size                 : 26.3 KiB (0%)
Title                       : Full
Language                    : English
Default                     : No
Forced                      : No

Menu
00:00:00.000                : en:Chapter 1
00:05:14.272                : en:Chapter 2
00:10:58.240                : en:Chapter 3
00:16:05.047                : en:Chapter 4
00:21:56.064                : en:Chapter 5
00:25:27.234                : en:Chapter 6
00:30:44.926                : en:Chapter 7
00:35:12.819                : en:Chapter 8
00:43:23.017                : en:Chapter 9
00:47:35.227                : en:Chapter 10
00:53:26.786                : en:Chapter 11
00:58:18.703                : en:Chapter 12
01:04:57.435                : en:Chapter 13
01:08:11.670                : en:Chapter 14
01:12:45.944                : en:Chapter 15
01:18:33.500                : en:Chapter 16



Подяка пану Hanway за синхронізацію звуку.
Джерело: &
Особиста оцінка: 0 - не дивився


Золотий реліз (завантажене не впливає на рейтинг)
 Трекер:    Зареєстрований   

Завантажити / скачати фільм українською



відео для новачків



 Зареєстрований:   2020-05-16 20:24
 Розмір:   21.31 GB 
 Оцінка фільму:   8.2/10 (Голосів: 10)
   
Інші релізи
bot 
робот


З нами з: 30.09.07
Востаннє: 26.05.05
Повідомлень: 25603

2018-12-03 10:02  
Тему перенесено з Анонси релізів до форуму Фільми в HD


staf777

[email protected] 
VIP


З нами з: 25.03.17
Востаннє: 24.09.20
Повідомлень: 551

2018-12-06 01:18  
Хороший фільм, як на мене крвщий за Монахиню
woled 
Частий відвідувач


З нами з: 01.06.17
Востаннє: 01.05.20
Повідомлень: 30

2018-12-09 02:39  
Цікавий сюжет, загалом дуже крута історія, але це важко назвати жахами.
nazikshup 
Новенький


З нами з: 08.02.14
Востаннє: 17.06.20
Повідомлень: 1

2018-12-23 15:05  
bot
Дуже цікавий і неординарний фільм, заснований на реальних подіях!

k10 
Новенький


З нами з: 01.01.17
Востаннє: 19.09.20
Повідомлень: 3

2018-12-23 22:39  
nazikshup
Цитата:
заснований на реальних подіях

proof

staf777 
Відео Гуртом - підтримка та поширення
Відео Гуртом - підтримка та поширення


З нами з: 16.11.16
Востаннє: 25.09.20
Повідомлень: 4034

2020-05-16 20:26  
Замінив доріжку Line на якіснішу та додав доріжку HD MA 5.1 та 5.1
Ваш часовий пояс: GMT + 2 Години

Нова тема   Відповісти