Бокс | Деонтей Уайлдер - Тайсон Ф'юрі (01.12.2018) HDTV 1080i Ukr/Eng

Нові коментарі

Нова тема   Відповісти
Автор Повідомлення
sergiyko.5 
VIP


З нами з: 25.02.16
Востаннє: 26.01.20
Повідомлень: 2877

2018-12-02 22:15  
Бокс | Деонтей Уайлдер - Тайсон Ф'юрі (01.12.2018) HDTV 1080i Ukr/Eng

Бокс | Деонтей Уайлдер - Тайсон Ф'юрі (01.12.2018) HDTV 1080i Ukr/Eng

Жанр: бокс
Країна: США
Телеканал: Showtime PPV

Опис:
В нічь з суботи на неділю в Лос-Анджелесі пройшов вечір боксу, головним боєм стала зустріч чемпіона WBC у важкій вазі Деонтея Уайлдера з екс-чемпіоном світу Тайсоном Ф'юрі.


Тривалість: 01:35:17
Якість: HDTV

Відео: кодек: розмір кадру: 1920 x 1080 бітрейт: 4725 кб/с 29,970 fps
Аудіо 1: мова: українська кодек: 2.0ch бітрейт: 192 кб/с
Аудіо 2: мова: англійська кодек: 5.1ch бітрейт: 384 кб/с

Примітка: в місцях, де був відсутній звук українського телеканалу, було вставлено звук з англійської доріжки
Про файл:
General
Unique ID : 83634267105862985118457963984850917588 (0x3EEB5FBA818B46EFBC1BA65A20AE18D4)
Complete name : G:\Torrents2\SPORT\Deontay.Wilder.vs.Tyson.Fury.2018-12-01.HDTV.1080i.
Format :
Format version : Version 4
File size : 3.54 GiB
Duration : 1 h 35 min
Overall bit rate : 5 323 kb/s
Movie name : by sergiyko
Encoded date : UTC 2018-12-02 20:09:46
Writing application : v28.1.0 ('Morning Child') 64-bit
Writing library : libebml v1.3.6 + v1.4.9

Video
ID : 1
Format : AVC
Format/Info : Advanced Video Codec
Format profile : [email protected]
Format settings : CABAC / 2 Ref Frames
Format settings, CABAC : Yes
Format settings, ReFrames : 2 frames
Format settings, GOP : M=3, N=15
Codec ID : V_MPEG4/ISO/AVC
Duration : 1 h 35 min
Bit rate : 4 745 kb/s
Width : 1 920 pixels
Height : 1 080 pixels
Display aspect ratio : 16:9
Frame rate mode : Variable
Frame rate : 29.908 FPS
Original frame rate : 29.970 (30000/1001) FPS
Color space : YUV
Chroma subsampling : 4:2:0
Bit depth : 8 bits
Scan type : MBAFF
Scan type, store method : Interleaved fields
Scan order : Top Field First
Bits/(Pixel*Frame) : 0.077
Stream size : 3.16 GiB (89%)
Title : Showtime PPV
Language : English
Default : Yes
Forced : No

Audio #1
ID : 2
Format : AC-3
Format/Info : Audio Coding 3
Commercial name : Dolby Digital
Codec ID : A_AC3
Duration : 1 h 35 min
Bit rate mode : Constant
Bit rate : 192 kb/s
Channel(s) : 2 channels
Channel layout : L R
Sampling rate : 48.0 kHz
Frame rate : 31.250 FPS (1536 SPF)
Bit depth : 16 bits
Compression mode : Lossy
Delay relative to video : -1 s 141 ms
Stream size : 131 MiB (4%)
Title : Ukr Comments
Language : Ukrainian
Service kind : Complete Main
Default : Yes
Forced : Yes

Audio #2
ID : 3
Format : AC-3
Format/Info : Audio Coding 3
Commercial name : Dolby Digital
Codec ID : A_AC3
Duration : 1 h 35 min
Bit rate mode : Constant
Bit rate : 384 kb/s
Channel(s) : 6 channels
Channel layout : L R C LFE Ls Rs
Sampling rate : 48.0 kHz
Frame rate : 31.250 FPS (1536 SPF)
Bit depth : 16 bits
Compression mode : Lossy
Delay relative to video : -1 s 141 ms
Stream size : 262 MiB (7%)
Title : Eng Comments
Language : English
Service kind : Complete Main
Default : No
Forced : No
Скріншоти:



Автор зведення: sergiyko


 Трекер:    Зареєстрований   

Завантажити / скачати торрент



відео для новачків



 Зареєстрований:   2018-12-02 22:15
 Розмір:   3.54 GB 
 Оцінка:   10/10 (Голосів: 4)
   
Ваш часовий пояс: GMT + 2 Години

Нова тема   Відповісти