Далеко від неї / Away from Her (2006) 720p Ukr/Eng | Sub Eng

Нові коментарі

Нова тема   Відповісти
Автор Повідомлення
Anonymous 







2018-12-02 22:25  
Далеко від неї / Away from Her (2006) 720p Ukr/Eng | Sub Eng

Далеко від неї / Away from Her (2006) 720p Ukr/Eng | Sub Eng


Жанр: драма
Країна: Канада, Великобританія, США



Кінокомпанія: Foundry Films, Capri Releasing, HanWay Films
Режисер: Сара Поллі / Sarah Polley
Актори: Джулі Крісті / Julie Christie, Ґордон Пінсент / Gordon Pinsent, Стейсі Ле Берґ / Stacey LaBerge, Олімпія Дукакіс / Olympia Dukakis, Діана Дезмарі, Клер Култер / Clare Coulter, Томас Гауфф / Thomas Hauff, Альберта Ватсон / Alberta Watson, Ґрейс Лінн Кунґ / Grace Lynn Kung, Лілі Френкс / Lili Francks, Ніна Добрев / Nina Dobrev

Сюжет:
Подружжя, яке прожило разом кілька десятків років, зустрічається з ворогом, якого неможливо побороти - у дружини знаходять хворобу Альцгеймера. Тепер двом людям, які вже не можуть уявити собі світ один без одного доведеться починати звикати до того, що один з них почне забувати іншого.


Тривалість: 01:45:06
Якість:
Відео:
кодек:
розмір кадру: 1280 х 720
бітрейт: 5050 кб/с

Аудіо # 1:

мова: українська
переклад: двоголосий закадровий
кодек: 2.0
бітрейт: 192 кб/с

Аудіо # 2:
мова: англійська
переклад: оригінал
кодек: 5.1
бітрейт: 448 кб/с

Субтитри:
мова: англійська
тип: програмні (м'які)
формат: *.srt
Info
General
Unique ID : 201575763163597411139245813720861503019 (0x97A6146FFF6489CCC16883A21409EE2B)
Complete name : G:\HD Films\Away from Her (2006) 720p [ukr.eng] Hurtom.
Format :
Format version : Version 4 / Version 2
File size : 4.18 GiB
Duration : 1 h 45 min
Overall bit rate mode : Variable
Overall bit rate : 5 694 kb/s
Movie name : Away from her 2006 720p HDTV
Encoded date : UTC 2018-12-02 19:04:32
Writing application : v29.0.0 ('Like It Or Not') 64-bit
Writing library : libebml v1.3.6 + v1.4.9

Video
ID : 1
Format : AVC
Format/Info : Advanced Video Codec
Format profile : [email protected]
Format settings : CABAC / 3 Ref Frames
Format settings, CABAC : Yes
Format settings, ReFrames : 3 frames
Codec ID : V_MPEG4/ISO/AVC
Duration : 1 h 45 min
Bit rate mode : Variable
Bit rate : 5 050 kb/s
Maximum bit rate : 40.0 Mb/s
Width : 1 280 pixels
Height : 720 pixels
Display aspect ratio : 16:9
Frame rate mode : Constant
Frame rate : 25.000 FPS
Color space : YUV
Chroma subsampling : 4:2:0
Bit depth : 8 bits
Scan type : Progressive
Bits/(Pixel*Frame) : 0.219
Stream size : 3.71 GiB (89%)
Title : Away from her 2006 720p HDTV by regi24 [GrupoHDS]
Writing library : core 64 r994M b35a044
Encoding settings : cabac=1 / ref=3 / deblock=1:0:0 / analyse=0x3:0x133 / me=umh / subme=6 / psy_rd=1.0:0.0 / brdo=1 / mixed_ref=1 / me_range=16 / chroma_me=1 / trellis=1 / 8x8dct=1 / cqm=0 / deadzone=21,11 / chroma_qp_offset=-2 / threads=3 / nr=0 / decimate=1 / mbaff=0 / bframes=3 / b_pyramid=1 / b_adapt=1 / b_bias=0 / direct=3 / wpredb=1 / bime=1 / keyint=250 / keyint_min=25 / scenecut=40(pre) / rc=2pass / bitrate=5050 / ratetol=1.0 / qcomp=0.60 / qpmin=10 / qpmax=51 / qpstep=4 / cplxblur=20.0 / qblur=0.5 / vbv_maxrate=40000 / vbv_bufsize=40000 / ip_ratio=1.40 / pb_ratio=1.30 / aq=1:1.00
Language : English
Default : Yes
Forced : No

Audio #1
ID : 2
Format : AC-3
Format/Info : Audio Coding 3
Commercial name : Dolby Digital
Codec ID : A_AC3
Duration : 1 h 45 min
Bit rate mode : Constant
Bit rate : 192 kb/s
Channel(s) : 2 channels
Channel positions : Front: L R
Sampling rate : 48.0 kHz
Frame rate : 31.250 FPS (1536 SPF)
Bit depth : 16 bits
Compression mode : Lossy
Stream size : 144 MiB (3%)
Title : TBi channel
Language : Ukrainian
Service kind : Complete Main
Default : Yes
Forced : No

Audio #2
ID : 3
Format : AC-3
Format/Info : Audio Coding 3
Commercial name : Dolby Digital
Codec ID : A_AC3
Duration : 1 h 45 min
Bit rate mode : Constant
Bit rate : 448 kb/s
Channel(s) : 6 channels
Channel positions : Front: L C R, Side: L R, LFE
Sampling rate : 48.0 kHz
Frame rate : 31.250 FPS (1536 SPF)
Bit depth : 16 bits
Compression mode : Lossy
Stream size : 337 MiB (8%)
Title : Original
Language : English
Service kind : Complete Main
Default : No
Forced : No

Text
ID : 4
Format : UTF-8
Codec ID : S_TEXT/UTF8
Codec ID/Info : UTF-8 Plain Text
Duration : 1 h 39 min
Bit rate : 52 b/s
Count of elements : 1189
Stream size : 38.7 KiB (0%)
Language : English
Default : Yes
Forced : No
Скріншоти




Дякую karvai0 за доріжку а також MAKAPOHHIK, OlegCena за запис звуку.
Джерело: &


 Трекер:    Зареєстрований   

Завантажити / скачати фільм українською



відео для новачків



 Зареєстрований:   2018-12-02 22:25
 Розмір:   4.18 GB 
 Оцінка фільму:   9.7/10 (Голосів: 3)
   
Інші релізи
   Далеко від неї / Away from Her (2006) 1080p Ukr/Eng | Sub Eng drop_plz  2 / 0   11.31 GB   2020-07-02 10:42 
   Далеко від неї / Away from Her (2006) Ukr/Eng | Sub Eng karvai0  2 / 2   1.78 GB   2013-10-05 17:56 
Ваш часовий пояс: GMT + 2 Години

Нова тема   Відповісти