Монахиня / The Nun (2018) Remux 1080p Ukr/Eng | Sub Eng

Нові коментарі

Нова тема   Відповісти
Автор Повідомлення
staf777 
Відео Гуртом - підтримка та поширення
Відео Гуртом - підтримка та поширення


З нами з: 16.11.16
Востаннє: 15.12.19
Повідомлень: 3071

2018-12-02 18:35  
Монахиня / The Nun (2018) Remux 1080p Ukr/Eng | Sub Eng


«Стань свідком найтемнішої частини всесвіту фільмів Закляття»



Жанр: детектив, жахи, трилер
Країна: США



Кінокомпанія: Atomic Monster,New Line Cinema,The Safran Company
Режисер: Корін Харді
Актори: Деміан Бішир, Таісса Фарміга, Йонас Блоке, Бонні Ааронс, Інгрід Бісу, Шарлотта Гоуп, Сандра Телес, Аугуст Матуро, Джек Фальк, Лінетт Газа

Сюжет:
Другий спін-оф фільму «Закляття». Коли молода монахиня вчиняє суїцид в усамітненому абатстві в Румунії, Ватикан відправляє двох священиків провести розслідування. Ризикуючи не лише власними життями, але й вірою та душею, вони стикаються зі страшною силою, демонічною монахинею, яка тероризувала родину у «Заклятті 2». І абатство стає страшним полем битви між живими та проклятими.


Тривалість: 01:36:34
Якість: Remux 1080p

Відео:
кодек:
розмір кадру: 1920x1080
бітрейт: 24,6 Mб/с

Аудіо # 1:
мова: українська
переклад: професійний дубльований | студія Postmodern
кодек: 2.0
бітрейт: 192 кб/с

Аудіо # 2:
мова: англійська
переклад: оригінал
кодек: TrueHD 7.1
бітрейт: 3272 кб/с

Субтитри (Forced):
мова: українська
тип: програмні (м'які)
формат: *.srt

Субтитри (Full,SDH):
мова: англійська
тип: програмні (м'які)
формат: *.srt
Info
[code]
General
Unique ID : 338068293941909419880012235126974453220 (0xFE5595C62B29A6205D7472BBF9B815E4)
Complete name : G:\Жахи\The Nun (2018) Remux 1080p [UKR][NG][Hurtom].
Format :
Format version : Version 4 / Version 2
File size : 19.0 GiB
Duration : 1 h 36 min
Overall bit rate mode : Variable
Overall bit rate : 28.1 Mb/s
Movie name : The Nun (2018) Remux 1080p [UKR][NG][Hurtom]
Encoded date : UTC 2018-12-02 17:55:38
Writing application : v24.0.0 ('Beyond The Pale') 64-bit
Writing library : libebml v1.3.6 + v1.4.9
Cover : Yes
Attachments : cover.jpg

Video
ID : 1
Format : AVC
Format/Info : Advanced Video Codec
Format profile : [email protected]
Format settings : CABAC / 4 Ref Frames
Format settings, CABAC : Yes
Format settings, ReFrames : 4 frames
Codec ID : V_MPEG4/ISO/AVC
Duration : 1 h 36 min
Bit rate mode : Variable
Bit rate : 24.6 Mb/s
Maximum bit rate : 27.0 Mb/s
Width : 1 920 pixels
Height : 1 080 pixels
Display aspect ratio : 16:9
Frame rate mode : Constant
Frame rate : 23.976 (24000/1001) FPS
Color space : YUV
Chroma subsampling : 4:2:0
Bit depth : 8 bits
Scan type : Progressive
Bits/(Pixel*Frame) : 0.494
Stream size : 16.6 GiB (87%)
Language : English
Default : Yes
Forced : No

Audio #1
ID : 2
Format : AC-3
Format/Info : Audio Coding 3
Codec ID : A_AC3
Duration : 1 h 36 min
Bit rate mode : Constant
Bit rate : 192 kb/s
Channel(s) : 2 channels
Channel positions : Front: L R
Sampling rate : 48.0 kHz
Frame rate : 31.250 FPS (1536 SPF)
Bit depth : 16 bits
Compression mode : Lossy
Stream size : 133 MiB (1%)
Title : iTunes
Language : Ukrainian
Service kind : Complete Main
Default : Yes
Forced : Yes

Audio #2
ID : 3
Format : TrueHD
Format profile : TrueHD+Atmos / TrueHD
Codec ID : A_TRUEHD
Duration : 1 h 36 min
Bit rate mode : Variable
Bit rate : 3 272 kb/s
Maximum bit rate : 5 742 kb/s
Channel(s) : Object Based / 8 channels
Channel positions : Object Based / Front: L C R, Side: L R, Back: L R, LFE
Sampling rate : / 48.0 kHz
Frame rate : 1 200.000 FPS (40 SPF)
Compression mode : Lossless
Stream size : 2.21 GiB (12%)
Title : Original
Language : English
Default : No
Forced : No

Text #1
ID : 4
Format : UTF-8
Codec ID : S_TEXT/UTF8
Codec ID/Info : UTF-8 Plain Text
Duration : 1 h 35 min
Bit rate : 0 b/s
Count of elements : 19
Stream size : 672 Bytes (0%)
Title : Forced
Language : Ukrainian
Default : Yes
Forced : Yes

Text #2
ID : 5
Format : UTF-8
Codec ID : S_TEXT/UTF8
Codec ID/Info : UTF-8 Plain Text
Duration : 1 h 30 min
Bit rate : 30 b/s
Count of elements : 639
Stream size : 20.4 KiB (0%)
Title : Full
Language : English
Default : No
Forced : No

Text #3
ID : 6
Format : UTF-8
Codec ID : S_TEXT/UTF8
Codec ID/Info : UTF-8 Plain Text
Duration : 1 h 35 min
Bit rate : 38 b/s
Count of elements : 942
Stream size : 27.1 KiB (0%)
Title : SDH
Language : English
Default : No
Forced : No

Menu
00:00:00.000 : :00:00:00.000
00:08:42.772 : :00:08:42.772
00:17:55.074 : :00:17:55.074
00:29:17.506 : :00:29:17.506
00:38:05.033 : :00:38:05.033
00:48:49.802 : :00:48:49.802
00:58:49.192 : :00:58:49.192
01:09:16.944 : :01:09:16.944
01:18:14.565 : :01:18:14.565
01:24:18.637 : :01:24:18.637
01:32:30.295 : :01:32:30.295
[code]




Джерело: &
Особиста оцінка: 0 - не дивився


Золотий реліз (завантажене не впливає на рейтинг)
 Трекер:    Зареєстрований   

Завантажити / скачати фільм українською



відео для новачків



 Зареєстрований:   2018-12-02 20:14
 Розмір:   18.97 GB 
 Оцінка фільму:   8.6/10 (Голосів: 14)
   
Інші релізи
   Монахиня / The Nun (2018) 1080p H.265 Ukr/Eng | Sub Eng -Star-Lord-  2 / 0   3.1 GB   2019-10-31 23:33 
   Монахиня / The Nun (2018) AVC Ukr/Eng | Sub Eng 11FrYkT  7 / 0   1.57 GB   2018-12-02 18:18 
   Монахиня / The Nun (2018) Ukr/Eng antik_2008  1 / 0   1.75 GB   2018-12-01 01:44 
   Монахиня / The Nun (2018) 1080p Ukr/Eng | Sub Eng igor911  4 / 0   7.24 GB   2018-11-30 19:03 
   Монахиня / The Nun (2018) 720p Ukr/Eng | Sub Eng 11FrYkT  3 / 0   3.71 GB   2018-11-28 16:23 
O_omarella! 
Свій


З нами з: 14.06.13
Востаннє: 01.12.19
Повідомлень: 139

2018-12-03 22:16  
Легенький жахастик з пивом пішов на ура)
[email protected] 
VIP


З нами з: 24.03.17
Востаннє: 14.12.19
Повідомлень: 399

2018-12-05 22:30  
Особо невразив. Фільм Закляття набагато страшніше
ALFROMEDA 
Відео Гуртом - підтримка та поширення
Відео Гуртом - підтримка та поширення


З нами з: 09.07.12
Востаннє: 15.12.19
Повідомлень: 353

2019-01-22 11:13  
гугл плей каже, що має доріжку 5.1
https://play.google.com/store/movies/details?id=7CdygG5PUrg&hl=uk

я не гурман, але може хтось бажає знати

Bochys 
Свій


З нами з: 09.09.10
Востаннє: 11.12.19
Повідомлень: 50

2019-04-10 20:20  
Чи можна завантажити фільм з гугле плей, щоб потім витягнути звідти звукову доріжку?
Ваш часовий пояс: GMT + 2 Години

Нова тема   Відповісти