М'ята / Peppermint (2018) 1080p Ukr/Eng | Sub Eng

Нові коментарі

Нова тема   Відповісти
Автор Повідомлення
staf777 
Відео Гуртом - підтримка та поширення
Відео Гуртом - підтримка та поширення


З нами з: 16.11.16
Востаннє: 14.12.19
Повідомлень: 3071

2018-12-02 16:30  
М'ята / Peppermint (2018) 1080p Ukr/Eng | Sub Eng



Жанр: бойовик, драма, трилер
Країна: США, Гонконг



Кінокомпанія: Huayi Brothers,Lakeshore Entertainment,STXfilms
Режисер: П'єр Морель
Актори: Дженніфер Гарнер, Джон Галлахер мол., Джон Ортіс, Хуан Пабло Раба, Енні Ілонзе, Джефф Хефнер, Келлі Флемінг, Едді Шин, Метод Мен, Тайсон Ріттер

Сюжет:
Молода мати Райлі Норт пробуджується від коми, після того як її чоловік і дочка були вбиті під час жорстокого нападу на сім'ю. Коли система, на розчарування Райлі, приймається захищати вбивць від правосуддя, жінка вирішує перетворитися зі звичайної громадянки на міську партизанку. Трансформуючи свій біль в особисту мотивацію, вона проводить роки в тіні, тренуючи свій розум, тіло і дух, щоб стати непереборною силою — уникаючи злочинний світ, поліцію і ФБР — поки вона готується здійснити своє особисте правосуддя.


Тривалість: 01:41:37
Якість: 1080p
Відео:
кодек:
розмір кадру: 1912x804
бітрейт: 6263 кб/с

Аудіо # 1:
мова: українська
переклад: професійний дубльований
кодек: 2.0
бітрейт: 192 кб/с

Аудіо # 2:
мова: англійська
переклад: оригінал
кодек: 5.1
бітрейт: 1509 кб/с

Субтитри:
мова: англійська
тип: програмні (м'які)
формат: *.srt
Info
General
Unique ID : 23016694597496985425812455239551064358 (0x1150DAA890E784E8451968DD4FFC9926)
Complete name : L:\Peppermint (2018) 1080p [Ukr][Eng][Hurtom].
Format :
Format version : Version 4 / Version 2
File size : 5.68 GiB
Duration : 1 h 42 min
Overall bit rate : 7 967 kb/s
Movie name : Peppermint (2018) 1080p [Ukr][Eng][Hurtom]
Encoded date : UTC 2019-01-05 13:20:11
Writing application : v24.0.0 ('Beyond The Pale') 64-bit
Writing library : libebml v1.3.6 + v1.4.9
Cover : Yes
Attachments : cover.jpg

Video
ID : 1
Format : AVC
Format/Info : Advanced Video Codec
Format profile : [email protected]
Format settings : CABAC / 5 Ref Frames
Format settings, CABAC : Yes
Format settings, ReFrames : 5 frames
Codec ID : V_MPEG4/ISO/AVC
Duration : 1 h 42 min
Bit rate : 6 263 kb/s
Width : 1 920 pixels
Height : 804 pixels
Display aspect ratio : 2.40:1
Frame rate mode : Constant
Frame rate : 23.976 (24000/1001) FPS
Color space : YUV
Chroma subsampling : 4:2:0
Bit depth : 8 bits
Scan type : Progressive
Bits/(Pixel*Frame) : 0.169
Stream size : 4.46 GiB (79%)
Title : CHD
Writing library : core 155 r2893 b00bcaf
Encoding settings : cabac=1 / ref=5 / deblock=1:-3:-3 / analyse=0x3:0x113 / me=umh / subme=10 / psy=1 / psy_rd=1.00:0.05 / mixed_ref=1 / me_range=48 / chroma_me=1 / trellis=2 / 8x8dct=1 / cqm=0 / deadzone=21,11 / fast_pskip=0 / chroma_qp_offset=-2 / threads=18 / lookahead_threads=3 / sliced_threads=0 / nr=0 / decimate=1 / interlaced=0 / bluray_compat=0 / constrained_intra=0 / bframes=8 / b_pyramid=2 / b_adapt=2 / b_bias=0 / direct=3 / weightb=1 / open_gop=0 / weightp=2 / keyint=250 / keyint_min=23 / scenecut=40 / intra_refresh=0 / rc_lookahead=40 / rc=crf / mbtree=0 / crf=18.5 / qcomp=0.60 / qpmin=0 / qpmax=69 / qpstep=4 / vbv_maxrate=50000 / vbv_bufsize=45000 / crf_max=0.0 / nal_hrd=none / filler=0 / ip_ratio=1.40 / pb_ratio=1.30 / aq=3:1.00
Language : English
Default : Yes
Forced : No
Color range : Limited
Matrix coefficients : BT.709

Audio #1
ID : 2
Format : AC-3
Format/Info : Audio Coding 3
Codec ID : A_AC3
Duration : 1 h 42 min
Bit rate mode : Constant
Bit rate : 192 kb/s
Channel(s) : 2 channels
Channel positions : Front: L R
Sampling rate : 48.0 kHz
Frame rate : 31.250 FPS (1536 SPF)
Bit depth : 16 bits
Compression mode : Lossy
Stream size : 140 MiB (2%)
Title : Dub [AAASound, Line], 2.0 192 Kbps
Language : Ukrainian
Service kind : Complete Main
Default : Yes
Forced : Yes

Audio #2
ID : 3
Format :
Format/Info : Digital Theater Systems
Codec ID : A_DTS
Duration : 1 h 42 min
Bit rate mode : Constant
Bit rate : 1 509 kb/s
Channel(s) : 6 channels
Channel positions : Front: L C R, Side: L R, LFE
Sampling rate : 48.0 kHz
Frame rate : 93.750 FPS (512 SPF)
Bit depth : 24 bits
Compression mode : Lossy
Stream size : 1.08 GiB (19%)
Title : Original
Language : English
Default : No
Forced : No

Text
ID : 4
Format : UTF-8
Codec ID : S_TEXT/UTF8
Codec ID/Info : UTF-8 Plain Text
Duration : 1 h 40 min
Bit rate : 52 b/s
Count of elements : 1305
Stream size : 38.9 KiB (0%)
Title : SDH
Language : English
Default : No
Forced : No

Menu
00:00:00.000 : en:00:00:00.000
00:05:49.474 : en:00:05:49.474
00:09:23.855 : en:00:09:23.855
00:14:09.599 : en:00:14:09.599
00:20:52.001 : en:00:20:52.001
00:26:34.593 : en:00:26:34.593
00:30:55.312 : en:00:30:55.312
00:35:11.693 : en:00:35:11.693
00:40:33.097 : en:00:40:33.097
00:45:56.796 : en:00:45:56.796
00:51:05.229 : en:00:51:05.229
00:56:15.872 : en:00:56:15.872
01:01:48.663 : en:01:01:48.663
01:05:45.108 : en:01:05:45.108
01:11:02.008 : en:01:11:02.008
01:16:12.401 : en:01:16:12.401
01:19:50.244 : en:01:19:50.244
01:25:28.832 : en:01:25:28.832
01:30:58.244 : en:01:30:58.244
01:35:04.574 : en:01:35:04.574
Скріншоти



Джерело: & & &
Особиста оцінка: 8 - мені сподобалося
М'ята / Peppermint (2018) 1080p Ukr/Eng | Sub Eng М'ята / Peppermint (2018) 1080p Ukr/Eng | Sub Eng


 Трекер:    Зареєстрований   

Завантажити / скачати фільм українською



відео для новачків



 Зареєстрований:   2019-01-05 15:41
 Розмір:   5.68 GB 
 Оцінка фільму:   9.1/10 (Голосів: 74)
   
Інші релізи
   М'ята / Peppermint (2018) Remux 1080p Ukr/Eng | Sub Eng staf777  9 / 0   25.65 GB   2019-01-05 15:18 
   М'ята / Peppermint (2018) Ukr/Eng uafilm.tv  20 / 1   1.47 GB   2019-01-05 12:56 
   М'ята / Peppermint (2018) 720p Ukr/Eng | Sub Eng 11FrYkT  13 / 1   2.51 GB   2019-01-05 10:35 
   М'ята / Peppermint (2018) AVC Ukr/Eng | Sub Eng 11FrYkT  9 / 0   1.75 GB   2019-01-05 10:16 
Panther2214 
Попереджень: 1
Попереджень: 1 


З нами з: 29.09.17
Востаннє: 20.11.19
Повідомлень: 373

2018-12-02 18:44  
Потужний фільм, не міг відірвати очей від екрану, динамічний та кримінальний трилер, який навіть кращий за Нікіту, не бачив такої видовищної стрілянини у виконанні дівчини, не шкодуючи нікого поклала край існуванню банди, помстою відновивши справедливість - дуже сподобався... Я під враженням... Та одне виникає питання, чому названо М'ята???
Neadekvat87 
Частий відвідувач


З нами з: 09.09.17
Востаннє: 14.12.19
Повідомлень: 42

2018-12-03 08:35  
Panther2214
її донька любила морозиво з мятою.

Panther2214 
Попереджень: 1
Попереджень: 1 


З нами з: 29.09.17
Востаннє: 20.11.19
Повідомлень: 373

2018-12-03 11:42  
Neadekvat87

Напевно прослухав, але все ж таки назва фільму не підходить до цього сценарію, якось не звучить....

waldi-hurtom 
VIP


З нами з: 07.10.12
Востаннє: 13.12.19
Повідомлень: 1056

2018-12-03 15:38  
Свій біль, не свою.
P.S. Фільм середненький, те що виглядає круто для Сталоне у виконанні кощавої жінки - нонсенс. Ну якій з неї Рембо? Сюжет замуляний, виконання посереднє. Для збоченних фанатів анорексічки Анжеліни Джолі. 7 балів.

vovang6 
Поважний учасник


З нами з: 27.08.12
Востаннє: 14.12.19
Повідомлень: 205

2018-12-03 22:33  
Дуже крутий фільм! Давненько такого не бачив. Не знаю чому, але він мені нагадав картини з 90-х. Тверда 8-ка з 10.
Dr.S 
Свій


З нами з: 30.05.17
Востаннє: 14.12.19
Повідомлень: 109

2018-12-03 23:03  
waldi-hurtom
Там майже все машинний переклад з російської Sad (1)

AlexScotsman 
Новенький


З нами з: 14.02.12
Востаннє: 13.12.19
Повідомлень: 6

2018-12-04 16:47  
як на мене, фільм на трієчку
п'єр морель вже не той
схоже на невдалу адаптацію law abiding citizen
який я тепер і передивлюся ще раз )

me34 
Частий відвідувач


З нами з: 26.09.12
Востаннє: 09.12.19
Повідомлень: 27

2018-12-22 01:03  
занадто простий сценарій, все передбачувано. і сюжет месника вже тисячі разів реалізований. такий собі амер варіант гонг-конгського бойовика 70х
Grisha36 
Частий відвідувач


З нами з: 22.08.16
Востаннє: 14.12.19
Повідомлень: 28

2018-12-30 11:57  
staf777
А ремукс планується ?

plutonium 
Новенький


З нами з: 09.11.14
Востаннє: 12.12.19
Повідомлень: 3

2019-01-05 13:58  
Ох, пригадати б того, хто мені порадив це подивитися... ну, бо це така примітивна та тупа халепа, що навіть не варта рецензії. Але я вже тут, тому кілька слів.

Сценарій - писав школяр. Примітиввно.
Операторська робота - гівняна.
Грим і костюми - гівно. Приклеєні вуса главного нігадяя - це капець.
Монтаж, динаміка - гівно. Гірше за гівняні кацапські "блокбастери", мабуть.
Гра акторів - так собі, традиційно морди с бетону.

але не це все головне: очевидно, була задумка "зараз можнопрестижно знімати на тему маладая валчіца лупасить нехороших мужиків (нехороші-бо мужики)
слава самкам. смерть самцям. от і вся ідея фільма.
ідея - гівно, а оскільки авторам нічого було сказати по темі, то і фільм вийшов гівно.
2/10 - не варте витраченого часу

staf777 
Відео Гуртом - підтримка та поширення
Відео Гуртом - підтримка та поширення


З нами з: 16.11.16
Востаннє: 14.12.19
Повідомлень: 3071

2019-01-05 15:45  
Grisha36
Так ось https://toloka.to/t97932

Додано через 2 хвилини 39 секунд:

Оновив на краще відео - 1080p

+380954897458 
VIP


З нами з: 02.06.17
Востаннє: 14.12.19
Повідомлень: 538

2019-01-06 01:45  
Чудовий бойовик. А всім хейтерам хочеться плюнути в мордяки і крикнути: "А що ви, трясця вашій матері, хотіли, це ж бойовик! А як бойовик він бездоганний. Теж мені, знавці знайшлися!"
І сценарій, і операторська робота, і монтаж, і, особливо, постановка екшену - все просто пречудово! Давно не отримуав такого задоволення, ковток свіжого повітря на фоні блокбастерів з дитячим прокатним рейтингом.

slavas 
Новенький


З нами з: 05.04.11
Востаннє: 10.12.19
Повідомлень: 24

2019-01-20 19:06  
Непогано як на бойовик
Ваш часовий пояс: GMT + 2 Години

Нова тема   Відповісти