Бокс | Адоніс Стівенсон - Олександр Гвоздик (01.12.2018) 720p 50fps Ukr/Eng

Нові коментарі

Нова тема   Відповісти
Автор Повідомлення
sergiyko.5 
VIP


З нами з: 25.02.16
Востаннє: 29.01.20
Повідомлень: 2877

2018-12-02 15:28  
Бокс | Адоніс Стівенсон - Олександр Гвоздик (01.12.2018) 720p 50fps Ukr/Eng

Бокс | Адоніс Стівенсон - Олександр Гвоздик (01.12.2018) 720p 50fps Ukr/Eng

Жанр: бокс
Країна: Канада
Телеканал: Інтер

Опис:
Сьогодні вночі український боксер Олександр Гвоздик (15-0, 12 КО) вийде на ринг у бою за титул чемпіона світу WBC у напівважкій вазі. Повідомляє сайт Sportanalytic.com.

Суперником нашого хлопця буде канадський боксер Адоніс Стівенсон (29-1-1, 24 КО), чинний чемпіон.


Тривалість: 00:57:39
Якість:

Відео: кодек: розмір кадру: 1280 х 720 бітрейт: 4070 кб/с
Аудіо 1: мова: українська, російська кодек: MP2 бітрейт: 192 кб/с
Аудіо 2: мова: англійська кодек: MP2 бітрейт: 256 кб/с

Примітка: в місцях, де був відсутній звук українського телеканалу, було вставлено звук з англійської доріжки
Про файл:
General
Unique ID : 229102772617989021741218842298443419201 (0xAC5B96C989812CC3ABC55DAF2120CE41)
Complete name : G:\Torrents2\SPORT\Adonis.Stevenson.vs.Oleksandr.Gvozdyk.2018-12-01..720p.Ukr.Eng.
Format :
Format version : Version 4
File size : 1.82 GiB
Duration : 57 min 39 s
Overall bit rate : 4 525 kb/s
Encoded date : UTC 2018-12-02 13:19:39
Writing application : v28.1.0 ('Morning Child') 64-bit
Writing library : libebml v1.3.6 + v1.4.9

Video
ID : 1
Format : AVC
Format/Info : Advanced Video Codec
Format profile : [email protected]
Format settings : CABAC / 5 Ref Frames
Format settings, CABAC : Yes
Format settings, ReFrames : 5 frames
Codec ID : V_MPEG4/ISO/AVC
Duration : 57 min 39 s
Bit rate : 4 073 kb/s
Width : 1 280 pixels
Height : 720 pixels
Display aspect ratio : 16:9
Frame rate mode : Constant
Frame rate : 50.000 FPS
Color space : YUV
Chroma subsampling : 4:2:0
Bit depth : 8 bits
Scan type : Progressive
Bits/(Pixel*Frame) : 0.088
Stream size : 1.64 GiB (90%)
Writing library : core 157 r2932 303c484
Encoding settings : cabac=1 / ref=5 / deblock=1:0:0 / analyse=0x3:0x113 / me=hex / subme=8 / psy=1 / psy_rd=1.00:0.00 / mixed_ref=1 / me_range=16 / chroma_me=1 / trellis=2 / 8x8dct=1 / cqm=0 / deadzone=21,11 / fast_pskip=1 / chroma_qp_offset=-2 / threads=12 / lookahead_threads=2 / sliced_threads=0 / nr=0 / decimate=1 / interlaced=0 / bluray_compat=0 / constrained_intra=0 / bframes=3 / b_pyramid=2 / b_adapt=1 / b_bias=0 / direct=3 / weightb=1 / open_gop=0 / weightp=2 / keyint=250 / keyint_min=25 / scenecut=40 / intra_refresh=0 / rc_lookahead=50 / rc=crf / mbtree=1 / crf=23.0 / qcomp=0.60 / qpmin=0 / qpmax=69 / qpstep=4 / ip_ratio=1.40 / aq=1:1.00
Language : English
Default : Yes
Forced : No
Color range : Limited
Matrix coefficients : BT.709

Audio #1
ID : 2
Format : MPEG Audio
Format version : Version 1
Format profile : Layer 2
Codec ID : A_MPEG/L2
Codec ID/Hint : MP2
Duration : 57 min 39 s
Bit rate mode : Constant
Bit rate : 192 kb/s
Channel(s) : 2 channels
Sampling rate : 48.0 kHz
Frame rate : 41.667 FPS (1152 SPF)
Compression mode : Lossy
Stream size : 79.2 MiB (4%)
Title : Інтер
Language : Ukrainian
Default : Yes
Forced : Yes

Audio #2
ID : 3
Format : MPEG Audio
Format version : Version 1
Format profile : Layer 2
Codec ID : A_MPEG/L2
Codec ID/Hint : MP2
Duration : 57 min 39 s
Bit rate mode : Constant
Bit rate : 256 kb/s
Channel(s) : 2 channels
Sampling rate : 48.0 kHz
Frame rate : 41.667 FPS (1152 SPF)
Compression mode : Lossy
Stream size : 106 MiB (6%)
Language : English
Default : No
Forced : No
Скріншоти:



Автор зведення: sergiyko


Золотий реліз (завантажене не впливає на рейтинг)
 Трекер:    Зареєстрований   

Завантажити / скачати торрент



відео для новачків



 Зареєстрований:   2018-12-02 15:28
 Розмір:   1.82 GB 
 Оцінка:   8/10 (Голосів: 5)
   
Ваш часовий пояс: GMT + 2 Години

Нова тема   Відповісти