Лондонські поля / London Fields (2018) 1080p

Нові коментарі

Нова тема   Відповісти
Автор Повідомлення
staf777 
Відео Гуртом - підтримка та поширення
Відео Гуртом - підтримка та поширення


З нами з: 16.11.16
Востаннє: 26.05.19
Повідомлень: 2384

2018-12-02 14:22  
Лондонські поля / London Fields (2018) 1080p

Лондонські поля / London Fields (2018) 1080p


Жанр: детектив, кримінал, трилер
Країна: Велика Британія, США



Кінокомпанія: Muse Productions,Periscope Entertainment,Curiously Bright Entertainment
Режисер: Метью Каллен
Актори: Ембер Герд, Джим Стерджесс, Тео Джеймс, Біллі Боб Торнтон, Джеймі Александер, Кара Делевінь, Джейсон Айзекс, Лілі Коул

Сюжет:
Дія розвивається в 1999 році. Американський письменник Самсон Янг живе в Лондоні. За останні 20 років він не написав ні рядка, оскільки у нього триває творча криза. Вдобавок Самсон смертельно хворий. Друга героїня роману Еміса - фатальна красуня Нікола Сікс, яка знайомиться в барі з двома чоловіками. Обидва стануть її потенційними вбивцями. Один - дрібний шахрай, другий - безвольний аристократ. Янг спостерігає за трійцею, сподіваючись отримати матеріал для свого роману.


Тривалість: 01:43:07
Якість: 1080p
Відео:
кодек:
розмір кадру: 1920x804
бітрейт: 4527 кб/с

Аудіо:
мова: українська
переклад: професійний дубльований
кодек: 2.0
бітрейт: 192 кб/с
Info
General
Unique ID : 39903929364339265008767061347542298530 (0x1E05379D7192E6C767A02DBA46F0EFA2)
Complete name : N:\London Fields (2018) 1080p [Hurtom].
Format :
Format version : Version 4 / Version 2
File size : 3.40 GiB
Duration : 1 h 43 min
Overall bit rate : 4 721 kb/s
Movie name : London Fields (2018) 1080p [Hurtom]
Encoded date : UTC 2018-12-02 11:11:22
Writing application : v24.0.0 ('Beyond The Pale') 64-bit
Writing library : libebml v1.3.6 + v1.4.9
Cover : Yes
Attachments : cover.jpg

Video
ID : 1
Format : AVC
Format/Info : Advanced Video Codec
Format profile : [email protected]
Format settings : CABAC / 5 Ref Frames
Format settings, CABAC : Yes
Format settings, ReFrames : 5 frames
Codec ID : V_MPEG4/ISO/AVC
Duration : 1 h 43 min
Bit rate : 4 527 kb/s
Width : 1 920 pixels
Height : 804 pixels
Display aspect ratio : 2.40:1
Frame rate mode : Constant
Frame rate : 25.000 FPS
Color space : YUV
Chroma subsampling : 4:2:0
Bit depth : 8 bits
Scan type : Progressive
Bits/(Pixel*Frame) : 0.117
Stream size : 3.26 GiB (96%)
Language : English
Default : Yes
Forced : No
Color range : Limited
Color primaries : BT.709
Transfer characteristics : BT.709
Matrix coefficients : BT.709

Audio
ID : 2
Format : AC-3
Format/Info : Audio Coding 3
Codec ID : A_AC3
Duration : 1 h 43 min
Bit rate mode : Constant
Bit rate : 192 kb/s
Channel(s) : 2 channels
Channel positions : Front: L R
Sampling rate : 48.0 kHz
Frame rate : 31.250 FPS (1536 SPF)
Bit depth : 16 bits
Compression mode : Lossy
Stream size : 142 MiB (4%)
Title : [Ukr-Dub]
Language : Ukrainian
Service kind : Complete Main
Default : Yes
Forced : Yes

Menu
00:00:00.000 : en:Глава 1
00:04:38.440 : en:Глава 2
00:11:54.880 : en:Глава 3
00:16:56.480 : en:Глава 4
00:23:34.320 : en:Глава 5
00:28:31.880 : en:Глава 6
00:33:40.200 : en:Глава 7
00:38:58.440 : en:Глава 8
00:44:29.360 : en:Глава 9
00:49:09.600 : en:Глава 10
00:55:51.760 : en:Глава 11
01:02:47.360 : en:Глава 12
01:07:43.240 : en:Глава 13
01:14:39.240 : en:Глава 14
01:20:39.960 : en:Глава 15
01:26:58.160 : en:Глава 16
01:30:51.520 : en:Глава 17
01:36:58.280 : en:Глава 16





Джерело: &
Особиста оцінка: 8 - мені сподобалося
Лондонські поля / London Fields (2018) 1080p Лондонські поля / London Fields (2018) 1080p


 Трекер:    Зареєстрований   

Завантажити / скачати фільм українською



відео для новачків



 Зареєстрований:   2018-12-02 14:22
 Розмір:   3.4 GB 
 Оцінка фільму:   8/10 (Голосів: 20)
   
Інші релізи
Ваш часовий пояс: GMT + 2 Години

Нова тема   Відповісти