Як позбутися хлопця за 10 днів / How to Lose a Guy in 10 Days (2003) AVC 2xUkr/Eng | sub Eng

Нові коментарі

Нова тема   Відповісти
Автор Повідомлення
staf777 
Відео Гуртом - підтримка та поширення
Відео Гуртом - підтримка та поширення


З нами з: 16.11.16
Востаннє: 23.04.19
Повідомлень: 2285

2018-12-02 13:05  
Як позбутися хлопця за 10 днів / How to Lose a Guy in 10 Days (2003) AVC 2xUkr/Eng | sub Eng

Як позбутися хлопця за 10 днів / How to Lose a Guy in 10 Days (2003) AVC 2xUkr/Eng | sub Eng


Жанр: комедія, романтичний
Країна: США



Кінокомпанія: Lynda Obst Productions, MMP Verwaltungsgesellschaft mbH, Moviemakers Productions
Режисер: Дональд Петрі
Актори: Кейт Хадсон / Kate Hudson, Меттью МакКонахі / Matthew McConaughey, Кетрін Хан, Анні Парісс, Адам Голдберг, Томас Леннон, Мішель Мішель, Шалом Харлов, Роберт Клейн, Бебе Нойвірт

Сюжет:
Журналістка Енді Андерсон з журналу отримує досить незвичайне редакційне завдання, яке до того ж треба зробити дуже швидко. Вона мусить написати статтю про те, що вигадують жінки для того, щоб звільнитися від чоловіка, коли вони його більше не хочуть бачити поруч. На все про все в неї тільки 10 днів, через які матеріал повинен лежати на столі головного редактора. Їй необхідно знайти в натовпі хлопця, закохати в себе, а потім вчинити всі класичні викрутаси примхливої красуні. На біду Енді, її вибір припав на молодого рекламного агента Бенджаміна Беррі, який сам якраз уклав зі своїм босом парі, що він зможе закохати в себе дівчину за 10 днів. Чи може таке дивне знайомство, засноване на авантюрі і замішане на брехні, привести до взаємності?


Тривалість: 01:55:28
Якість: AVC
Відео:
кодек:
розмір кадру: 1024x576
бітрейт: 2362 кб/с

Аудіо # 1:
мова: українська
переклад: багатоголосий закадровий
кодек: 2.0
бітрейт: 192 кб/с

Аудіо # 2:
мова: українська
переклад: багатоголосий закадровий
кодек: 2.0
бітрейт: 192 кб/с

Аудіо # 3:
мова: англійська
переклад: оригінал
кодек: 5.1
бітрейт: 384 кб/с

Субтитри:
мова: англійська
тип: програмні (м'які)
формат: *.srt
Info
General
Unique ID : 112570412258581614528265620848054002861 (0x54B045D50BE865400520CCD16C3264AD)
Complete name : N:\ How to Lose a Guy in 10 Days (2003) AVC [2xUkr Eng][Sub Eng][Hurtom].
Format :
Format version : Version 4 / Version 2
File size : 2.53 GiB
Duration : 1 h 55 min
Overall bit rate : 3 133 kb/s
Movie name : How to Lose a Guy in 10 Days (2003) AVC [2xUkr Eng][Sub Eng][Hurtom]
Encoded date : UTC 2018-12-02 09:39:25
Writing application : v24.0.0 ('Beyond The Pale') 64-bit
Writing library : libebml v1.3.6 + v1.4.9
Cover : Yes
Attachments : cover.jpg

Video
ID : 1
Format : AVC
Format/Info : Advanced Video Codec
Format profile : [email protected]
Format settings : CABAC / 10 Ref Frames
Format settings, CABAC : Yes
Format settings, ReFrames : 10 frames
Codec ID : V_MPEG4/ISO/AVC
Duration : 1 h 55 min
Bit rate : 2 362 kb/s
Width : 1 024 pixels
Height : 576 pixels
Display aspect ratio : 16:9
Frame rate mode : Constant
Frame rate : 23.976 (24000/1001) FPS
Color space : YUV
Chroma subsampling : 4:2:0
Bit depth : 8 bits
Scan type : Progressive
Bits/(Pixel*Frame) : 0.167
Stream size : 1.91 GiB (75%)
Title : Rip by 0ptimus
Writing library : core 130 r2273 b3065e6
Encoding settings : cabac=1 / ref=10 / deblock=1:-2:-1 / analyse=0x3:0x113 / me=umh / subme=10 / psy=1 / psy_rd=1.00:0.20 / mixed_ref=1 / me_range=32 / chroma_me=1 / trellis=2 / 8x8dct=1 / cqm=0 / deadzone=21,11 / fast_pskip=0 / chroma_qp_offset=-3 / threads=3 / lookahead_threads=1 / sliced_threads=0 / nr=0 / decimate=0 / interlaced=0 / bluray_compat=0 / constrained_intra=0 / bframes=8 / b_pyramid=2 / b_adapt=2 / b_bias=0 / direct=3 / weightb=1 / open_gop=0 / weightp=2 / keyint=240 / keyint_min=23 / scenecut=40 / intra_refresh=0 / rc_lookahead=40 / rc=2pass / mbtree=0 / bitrate=2362 / ratetol=1.0 / qcomp=0.60 / qpmin=0 / qpmax=69 / qpstep=4 / cplxblur=20.0 / qblur=0.5 / vbv_maxrate=50000 / vbv_bufsize=50000 / nal_hrd=none / ip_ratio=1.40 / pb_ratio=1.30 / aq=1:1.00
Language : English
Default : Yes
Forced : Yes

Audio #1
ID : 2
Format : AC-3
Format/Info : Audio Coding 3
Codec ID : A_AC3
Duration : 1 h 55 min
Bit rate mode : Constant
Bit rate : 192 kb/s
Channel(s) : 2 channels
Channel positions : Front: L R
Sampling rate : 48.0 kHz
Frame rate : 31.250 FPS (1536 SPF)
Bit depth : 16 bits
Compression mode : Lossy
Stream size : 159 MiB (6%)
Title : [UA-MVO-NEW CANAL]
Language : Ukrainian
Service kind : Complete Main
Default : Yes
Forced : Yes

Audio #2
ID : 3
Format : AC-3
Format/Info : Audio Coding 3
Codec ID : A_AC3
Duration : 1 h 55 min
Bit rate mode : Constant
Bit rate : 192 kb/s
Channel(s) : 2 channels
Channel positions : Front: L R
Sampling rate : 48.0 kHz
Frame rate : 31.250 FPS (1536 SPF)
Bit depth : 16 bits
Compression mode : Lossy
Stream size : 159 MiB (6%)
Title : [UA-MVO-K1]
Language : Ukrainian
Service kind : Complete Main
Default : No
Forced : No

Audio #3
ID : 4
Format : AC-3
Format/Info : Audio Coding 3
Codec ID : A_AC3
Duration : 1 h 55 min
Bit rate mode : Constant
Bit rate : 384 kb/s
Channel(s) : 6 channels
Channel positions : Front: L C R, Side: L R, LFE
Sampling rate : 48.0 kHz
Frame rate : 31.250 FPS (1536 SPF)
Bit depth : 16 bits
Compression mode : Lossy
Stream size : 317 MiB (12%)
Language : English
Service kind : Complete Main
Default : No
Forced : No

Text
ID : 5
Format : UTF-8
Codec ID : S_TEXT/UTF8
Codec ID/Info : UTF-8 Plain Text
Duration : 1 h 49 min
Bit rate : 76 b/s
Count of elements : 1706
Stream size : 61.7 KiB (0%)
Language : English
Default : No
Forced : No

Menu
00:00:00.000 : :The 'How to' Girl
00:05:45.095 : :Sneakers & Beer Division
00:09:09.214 : :A List of Dating Don'ts
00:13:45.907 : :Find the Guy
00:23:49.720 : :Dangling the Bait
00:29:39.027 : :Hook, Line & Sinker
00:31:35.477 : :The Game Begins
00:37:12.188 : :Chick Flick Marathon
00:41:22.730 : :A Woman's Touch
00:46:25.783 : :Princess Sophia
00:49:32.303 : :Krull the Warrior King
00:54:00.529 : :Our Family Album
00:59:57.969 : :Boy's Night
01:06:33.488 : :Couple's Therapy
01:12:29.929 : :Staten Island
01:20:17.688 : :Feels Like Home
01:25:40.594 : :Day 10
01:30:44.189 : :Does She or Doesn't She?
01:32:56.362 : :All Bets Are Off
01:39:16.325 : :Andie's Article
01:46:15.536 : :How to Catch the Girl






Запис з Нового Bohdan237 Синхронізація Arsenfpu
Запис з каналу К1 РОМЕО Синхронізація Arsenfpu

Джерело: &
Особиста оцінка: 8 - мені сподобалося
Як позбутися хлопця за 10 днів / How to Lose a Guy in 10 Days (2003) AVC 2xUkr/Eng | sub Eng Як позбутися хлопця за 10 днів / How to Lose a Guy in 10 Days (2003) AVC 2xUkr/Eng | sub Eng


Срібний реліз (на рейтинг впливає 50% завантаженого)
 Трекер:    Зареєстрований   

Завантажити / скачати фільм українською



відео для новачків



 Зареєстрований:   2018-12-02 13:43
 Розмір:   2.53 GB 
 Оцінка фільму:   8.7/10 (Голосів: 14)
   
bot 
робот


З нами з: 30.09.07
Востаннє: 26.05.05
Повідомлень: 21238

2018-12-02 13:43  
Тему перенесено з Анонси релізів до форуму Фільми


staf777

Ваш часовий пояс: GMT + 2 Години

Нова тема   Відповісти