1983 (Сезон 1) / 1983 (Season 1) (2018)

Нові коментарі

Нова тема   Відповісти
Автор Повідомлення
DniproFilm 
Свій


З нами з: 10.10.18
Востаннє: 10.12.18
Повідомлень: 141

2018-12-01 23:56  
1983 (Сезон 1) / 1983 (Season 1) (2018)

1983 (Сезон 1) / 1983 (Season 1) (2018)


Жанр: драма, трилер, кримінал
Країна:Польща


Кінокомпанія / телеканал: House Media Company, The Kennedy/Marshall Company

Режисер: Ольга Хайдас, Агнешка Смочиньска, Касія Адамік
Актори/ролі озвучують: Єва Блащик, Анджей Хира, Агнешка Глиньска, Мацей Мусял, Михалина Ольшанска, Едіта Ольшувка, Катажина Скаржанка, Хелена Суецка та інші

Сюжет:
Можливо не самий оригінальний, але цікавий фантастичний серіал про альтернативну реальність, в якій холодна війна не завершилася, а країни Варшавського блоку не отримали омріяної свободи.

За сюжетом, у 1983 році кривавий терористичний акт та його наслідки зупинили курс звільнення Польщі та подальше падіння Радянського Союзу. Холодна війна може цілком перейти в гарячу фазу. Через 20 років після теракту, ідеалістичний студент-юрист та опальний поліцейський слідчий наткнулися на змову, яка утримує «Залізну завісу» і планує зацементувати курс країни на диктатуру…


Тривалість: 1 серія: ~ 60 хв. (цілком серій: 8)
Перелік серій

1. Entaglement
2. Rollback
3. Alignment
4. Blowback
5. Sanctuary
6. Subversion
7. Mayday
8. Requiem
Якість:
Відео:
кодек:
розмір кадру: 720x360
бітрейт: ~1800 кб/с

Аудіо # 1:
мова: українська
переклад: багатоголосий закадровий
кодек: 5.1
бітрейт: 384 кб/с

Джерело озвучення:
DniproFilm
Info

Video
ID : 0
Format : MPEG-4 Visual
Format profile : Advanced [email protected]
Format settings : BVOP2
Format settings, BVOP : 2
Format settings, QPel : No
Format settings, GMC : No warppoints
Format settings, Matrix : Default (H.263)
Muxing mode : Packed bitstream
Codec ID :
Codec ID/Hint :
Duration : 57 min 58 s
Bit rate : 1 474 kb/s
Width : 720 pixels
Height : 360 pixels
Display aspect ratio : 2.000
Frame rate : 25.000 FPS
Color space : YUV
Chroma subsampling : 4:2:0
Bit depth : 8 bits
Scan type : Progressive
Compression mode : Lossy
Bits/(Pixel*Frame) : 0.227
Stream size : 611 MiB (79%)
Writing library : 67

Audio
ID : 1
Format : AC-3
Format/Info : Audio Coding 3
Commercial name : Dolby Digital
Codec ID : 2000
Duration : 57 min 57 s
Bit rate mode : Constant
Bit rate : 384 kb/s
Channel(s) : 6 channels
Channel positions : Front: L C R, Side: L R, LFE
Sampling rate : 48.0 kHz
Frame rate : 31.250 FPS (1536 SPF)
Bit depth : 16 bits
Compression mode : Lossy
Stream size : 159 MiB (21%)
Alignment : Aligned on interleaves
Interleave, duration : 40 ms (1.00 video frame)
Interleave, preload duratio : 512 ms
Service kind : Complete Main
Скріншоти


Увага, присутня відео та аудіореклама.


Джерело: DniproFilm


Авторський реліз (завантажувати можна без реєстрації)
 Трекер:    Зареєстрований   

Завантажити / скачати серіал українською



відео для новачків



 Зареєстрований:   2018-12-01 23:56
 Розмір:   5.65 GB 
 Оцінка серіалу:   10/10 (Голосів: 7)
   
Ваш часовий пояс: GMT + 2 Години

Нова тема   Відповісти