1983 (Сезон 1) / 1983 (Season 1) (2018) 1080p Ukr/Pol

Нові коментарі

Нова тема   Відповісти
Останній раз роздавалося DniproFilm (2018-12-10)
Автор Повідомлення
DniproFilm 
Свій


З нами з: 10.10.18
Востаннє: 10.12.18
Повідомлень: 141

2018-12-01 23:56  
1983 (Сезон 1) / 1983 (Season 1) (2018) 1080p Ukr/Pol

1983 (Сезон 1) / 1983 (Season 1) (2018) 1080p Ukr/Pol


Жанр: драма, трилер, кримінал
Країна:Польща


Кінокомпанія / телеканал: House Media Company, The Kennedy/Marshall Company

Режисер: Ольга Хайдас, Агнешка Смочиньска, Касія Адамік
Актори/ролі озвучують: Єва Блащик, Анджей Хира, Агнешка Глиньска, Мацей Мусял, Михалина Ольшанска, Едіта Ольшувка, Катажина Скаржанка, Хелена Суецка та інші

Сюжет:
Можливо не самий оригінальний, але цікавий фантастичний серіал про альтернативну реальність, в якій холодна війна не завершилася, а країни Варшавського блоку не отримали омріяної свободи.

За сюжетом, у 1983 році кривавий терористичний акт та його наслідки зупинили курс звільнення Польщі та подальше падіння Радянського Союзу. Холодна війна може цілком перейти в гарячу фазу. Через 20 років після теракту, ідеалістичний студент-юрист та опальний поліцейський слідчий наткнулися на змову, яка утримує «Залізну завісу» і планує зацементувати курс країни на диктатуру…


Тривалість: 1 серія: ~ 60 хв. (цілком серій: 8)
Перелік серій

1. Entaglement
2. Rollback
3. Alignment
4. Blowback
5. Sanctuary
6. Subversion
7. Mayday
8. Requiem
Якість:
Відео:
кодек:
розмір кадру: 1920x960
бітрейт: ~7000 кб/с

Аудіо # 1:
мова: українська
переклад: багатоголосий закадровий
кодек: 5.1
бітрейт: 384 кб/с

Аудіо # 2:
мова: польська
переклад: оригінал
кодек: 5.1
бітрейт: 640 кб/с

Джерело озвучення:
DniproFilm
Info

Video
ID : 1
Format : AVC
Format/Info : Advanced Video Codec
Format profile : [email protected]
Format settings : CABAC / 4 Ref Frames
Format settings, CABAC : Yes
Format settings, ReFrames : 4 frames
Codec ID : V_MPEG4/ISO/AVC
Duration : 57 min 58 s
Bit rate : 6 537 kb/s
Width : 1 920 pixels
Height : 960 pixels
Display aspect ratio : 2.000
Frame rate mode : Constant
Frame rate : 25.000 FPS
Standard : PAL
Color space : YUV
Chroma subsampling : 4:2:0
Bit depth : 8 bits
Scan type : Progressive
Bits/(Pixel*Frame) : 0.142
Stream size : 2.65 GiB (86%)
Language : English
Default : Yes
Forced : No
Color range : Limited
Color primaries : BT.709
Transfer characteristics : BT.709
Matrix coefficients : BT.709

Audio #1
ID : 2
Format : AC-3
Format/Info : Audio Coding 3
Commercial name : Dolby Digital
Codec ID : A_AC3
Duration : 57 min 57 s
Bit rate mode : Constant
Bit rate : 384 kb/s
Channel(s) : 6 channels
Channel positions : Front: L C R, Side: L R, LFE
Sampling rate : 48.0 kHz
Frame rate : 31.250 FPS (1536 SPF)
Bit depth : 16 bits
Compression mode : Lossy
Stream size : 159 MiB (5%)
Title : DniproFilm
Language : Ukrainian
Service kind : Complete Main
Default : Yes
Forced : No

Audio #2
ID : 3
Format : AC-3
Format/Info : Audio Coding 3
Codec ID : A_AC3
Duration : 57 min 26 s
Bit rate : 640 kb/s
Channel(s) : 6 channels
Sampling rate : 48.0 kHz
Frame rate : 31.250 FPS (1536 SPF)
Compression mode : Lossy
Stream size : 263 MiB (8%)
Language : Polish
Default : No
Forced : No
Скріншоти

Увага, присутня відео та аудіореклама.


Джерело: DniproFilm


Авторський реліз (завантажувати можна без реєстрації)
 Трекер:    Зареєстрований   

Завантажити / скачати серіал українською



відео для новачків



 Зареєстрований:   2018-12-01 23:56
 Розмір:   23.79 GB 
 Оцінка серіалу:   9.3/10 (Голосів: 3)
   
Ваш часовий пояс: GMT + 2 Години

Нова тема   Відповісти