Любов / Love (2015) 1080p H.265 Ukr(Mic)/Eng | Sub Eng

Нові коментарі

Нова тема   Відповісти
Автор Повідомлення
Anonymous 







2018-12-02 00:31  
Любов / Love (2015) 1080p H.265 Ukr(Mic)/Eng | Sub Eng

Любов / Love (2015) 1080p H.265 Ukr(Mic)/Eng | Sub Eng


Жанр: драма, романтичний, еротика
Країна: Франція, Бельгія
Кінокомпанія: Les Cinémas de la Zone, RT Features, Rectangle Productions
Режисер: Ґаспар Ное / Gaspar Noé
Актори: Аомі Муйок / Aomi Muyock, Карл Ґлусман / Karl Glusman, Клара Крістін / Klara Kristin, Хуан Сааведра / Juan Saavedra, Ґаспар Ное / Gaspar Noé, Вінсент Меревел / Vincent Maraval, Бенуа Дебі / Benoît Debie, Стелла Роча / Stella Rocha та інші.

Сюжет:
Мерфі і Електра разом вже два роки. Хлопець зраджує своїй коханій з дівчиною на ім'я Омі, яка виявляється вагітною. З цієї причини його відносини з Електрою припиняються на дуже сумній ноті. Через деякий час, в один дощовий ранок в квартирі вже одруженого Мерфі лунає дзвінок. Це мати Електри, Нора. Вона цікавиться, чи не бачився він з її дочкою останнім часом, бо сама жінка вже давно не чула від неї новин. Нора дуже турбується ще й тому, що у дівчини є суїцидальні схильності. Весь цей день Мерфі віддається спогадам їх дворічних відносин, де були наркотики, грубий секс, ігри та ніжні моменти...

Тривалість: 02:09:23
Якість: (Власний Rip)
Відео:
кодек: H.265 (HEVC)
розмір кадру: 1920 x 804
бітрейт: 6 963 кб/с
частота кадрів: 23.976 fps
біт піксель: 0.188 BPP (Bits Per Pixel)
бітова глибина: 10 біт
Увага! Перед завантаженням переконайтесь, що ваш пристрій відтворення (та/або ПЗ) підтримує H.265 (HEVC)

Аудіо # 1:
мова: українська
переклад: багатоголосий закадровий | Mic (якісний)
кодек: AC-3 2.0
бітрейт: 192 кб/с

Аудіо # 2:
мова: англійська
переклад: оригінал
кодек: AC-3 5.1
бітрейт: 640 кб/с

Субтитри # 1:
мова: англійська (Full),
тип: програмні (м'які)
формат: *.srt


Info
Код:
General
Unique ID                                : 169003122577385702467104042893129858047 (0x7F24D1442F68539F73461FBF2594BBFF)
Complete name                            : E:\Video\Love (2015) 1080p H.265 [UKR_ENG].
Format                                   :
Format version                           : Version 4 / Version 2
File size                                : 7.05 GiB
Duration                                 : 2 h 9 min
Overall bit rate                         : 7 797 kb/s
Movie name                               : Love (2015) - Encoded by -Star-Lord-
Encoded date                             : UTC 2018-12-01 20:04:10
Writing application                      : v20.0.0 ('I Am The Sun') 32-bit
Writing library                          : libebml v1.3.5 + v1.4.8
Cover                                    : Yes
Attachments                              : Cover.jpg

Video
ID                                       : 1
Format                                   : HEVC
Format/Info                              : High Efficiency Video Coding
Format profile                           : Main [email protected]@High
Codec ID                                 : V_MPEGH/ISO/HEVC
Duration                                 : 2 h 9 min
Bit rate                                 : 6 963 kb/s
Width                                    : 1 920 pixels
Height                                   : 804 pixels
Display aspect ratio                     : 2.40:1
Frame rate mode                          : Constant
Frame rate                               : 23.976 (24000/1001) FPS
Color space                              : YUV
Chroma subsampling                       : 4:2:0
Bit depth                                : 10 bits
Bits/(Pixel*Frame)                       : 0.188
Stream size                              : 6.29 GiB (89%)
Title                                    : Love (2015) - Encoded by -Star-Lord-
Writing library                          : x265 2.8+74-fd517ae68f93:[Windows][GCC 7.3.0][64 bit] 10bit
Encoding settings                        : cpuid=1111039 / frame-threads=5 / numa-pools=4 / wpp / no-pmode / no-pme / no-psnr / no-ssim / log-level=3 / input-csp=1 / input-res=1920x804 / interlace=0 / total-frames=0 / level-idc=51 / high-tier=1 / uhd-bd=0 / ref=5 / allow-non-conformance / no-repeat-headers / annexb / no-aud / no-hrd / info / hash=0 / no-temporal-layers / open-gop / min-keyint=23 / keyint=250 / gop-lookahead=0 / bframes=8 / b-adapt=2 / b-pyramid / bframe-bias=0 / rc-lookahead=60 / lookahead-slices=5 / scenecut=40 / radl=0 / no-intra-refresh / ctu=64 / min-cu-size=8 / no-rect / no-amp / max-tu-size=32 / tu-inter-depth=2 / tu-intra-depth=2 / limit-tu=0 / rdoq-level=1 / dynamic-rd=0.00 / no-ssim-rd / signhide / no-tskip / nr-intra=0 / nr-inter=0 / no-constrained-intra / no-strong-intra-smoothing / max-merge=2 / limit-refs=3 / no-limit-modes / me=3 / subme=7 / merange=57 / temporal-mvp / weightp / weightb / no-analyze-src-pics / deblock=-3:-3 / no-sao / no-sao-non-deblock / rd=3 / no-early-skip / rskip / no-fast-intra / no-tskip-fast / no-cu-lossless / no-b-intra / no-splitrd-skip / rdpenalty=0 / psy-rd=2.00 / psy-rdoq=1.00 / no-rd-refine / no-lossless / cbqpoffs=0 / crqpoffs=0 / rc=crf / crf=18.5 / qcomp=0.65 / qpstep=1 / stats-write=0 / stats-read=0 / vbv-maxrate=50000 / vbv-bufsize=50000 / vbv-init=0.9 / crf-max=0.0 / crf-min=0.0 / ipratio=1.40 / pbratio=1.30 / aq-mode=1 / aq-strength=1.00 / cutree / zone-count=0 / no-strict-cbr / qg-size=32 / no-rc-grain / qpmax=69 / qpmin=0 / no-const-vbv / sar=1 / overscan=0 / videoformat=5 / range=0 / colorprim=1 / transfer=1 / colormatrix=1 / chromaloc=0 / display-window=0 / max-cll=0,0 / min-luma=0 / max-luma=1023 / log2-max-poc-lsb=8 / vui-timing-info / vui-hrd-info / slices=1 / no-opt-qp-pps / no-opt-ref-list-length-pps / no-multi-pass-opt-rps / scenecut-bias=0.05 / no-opt-cu-delta-qp / no-aq-motion / no-hdr / no-hdr-opt / no-dhdr10-opt / no-idr-recovery-sei / analysis-reuse-level=5 / scale-factor=0 / refine-intra=0 / refine-inter=0 / refine-mv=0 / no-limit-sao / ctu-info=0 / no-lowpass-dct / refine-mv-type=0 / copy-pic=1 / max-ausize-factor=1.0 / no-dynamic-refine / no-single-sei
Default                                  : Yes
Forced                                   : No
Color range                              : Limited
Color primaries                          : BT.709
Transfer characteristics                 : BT.709
Matrix coefficients                      : BT.709

Audio #1
ID                                       : 2
Format                                   : AC-3
Format/Info                              : Audio Coding 3
Codec ID                                 : A_AC3
Duration                                 : 2 h 9 min
Bit rate mode                            : Constant
Bit rate                                 : 192 kb/s
Channel(s)                               : 2 channels
Channel positions                        : Front: L R
Sampling rate                            : 48.0 kHz
Frame rate                               : 31.250 FPS (1536 SPF)
Bit depth                                : 16 bits
Compression mode                         : Lossy
Stream size                              : 178 MiB (2%)
Title                                    : БЗ - Mic (Якісний)
Language                                 : Ukrainian
Service kind                             : Complete Main
Default                                  : Yes
Forced                                   : No

Audio #2
ID                                       : 3
Format                                   : AC-3
Format/Info                              : Audio Coding 3
Codec ID                                 : A_AC3
Duration                                 : 2 h 9 min
Bit rate mode                            : Constant
Bit rate                                 : 640 kb/s
Channel(s)                               : 6 channels
Channel positions                        : Front: L C R, Side: L R, LFE
Sampling rate                            : 48.0 kHz
Frame rate                               : 31.250 FPS (1536 SPF)
Bit depth                                : 16 bits
Compression mode                         : Lossy
Stream size                              : 592 MiB (8%)
Title                                    : Original
Language                                 : English
Service kind                             : Complete Main
Default                                  : No
Forced                                   : No

Text
ID                                       : 4
Format                                   : UTF-8
Codec ID                                 : S_TEXT/UTF8
Codec ID/Info                            : UTF-8 Plain Text
Duration                                 : 2 h 2 min
Bit rate                                 : 37 b/s
Count of elements                        : 1168
Stream size                              : 33.5 KiB (0%)
Title                                    : Full
Language                                 : English
Default                                  : Yes
Forced                                   : No

Menu
00:00:00.000                             : en:Chapter 1
00:09:45.067                             : en:Chapter 2
00:15:07.734                             : en:Chapter 3
00:22:41.068                             : en:Chapter 4
00:29:45.669                             : en:Chapter 5
00:36:39.570                             : en:Chapter 6
00:44:17.904                             : en:Chapter 7
00:51:20.571                             : en:Chapter 8
00:58:19.138                             : en:Chapter 9
01:06:22.472                             : en:Chapter 10
01:09:23.806                             : en:Chapter 11
01:15:49.806                             : en:Chapter 12
01:23:26.806                             : en:Chapter 13
01:28:40.541                             : en:Chapter 14
01:36:37.942                             : en:Chapter 15
01:44:55.009                             : en:Chapter 16
01:51:33.776                             : en:Chapter 17
01:58:11.143                             : en:Chapter 18
02:05:26.677                             : en:Chapter 19
02:06:34.177                             : en:Chapter 20
02:14:47.278                             : en:Chapter 21
Світлини




Подяка пану Hanway за синхронізацію

Джерело:
Особиста оцінка: 0 - не дивився


>>> Усі мої релізи <<<



 Трекер:    Зареєстрований   

Завантажити / скачати фільм українською



відео для новачків



 Зареєстрований:   2018-12-02 00:31
 Розмір:   7.05 GB 
 Оцінка фільму:   9.8/10 (Голосів: 5)
   
Інші релізи
   Любов / Love (2015) 1080p 3D [Half OverUnder] Ukr(Mic)/Eng GEORGKys  2 / 0   8.81 GB   2016-01-24 22:42 
   Любов / Love (2015) 720p Ukr(Mic)/Eng 11FrYkT  4 / 0   4.95 GB   2015-12-20 12:35 
   Любов / Love (2015) Ukr(Mic)/Eng Covenant  9 / 0   2.19 GB   2015-12-20 02:03 
trasylo 
Свій


З нами з: 24.12.16
Востаннє: 29.09.20
Повідомлень: 77

2018-12-02 22:51  
Цікавий сюжет. Та й актори вдало зіграли.
Ваш часовий пояс: GMT + 2 Години

Нова тема   Відповісти