Гола правда / The Ugly Truth (2009) 1080p H.265 2xUkr/Eng | Sub Eng

Нові коментарі

Нова тема   Відповісти
Автор Повідомлення
Anonymous 







2018-12-02 00:26  
Гола правда / The Ugly Truth (2009) 1080p H.265 2xUkr/Eng | Sub Eng

Гола правда / The Ugly Truth (2009) 1080p H.265 2xUkr/Eng | Sub Eng


Жанр: комедія, мелодрама, сімейний
Країна: США
Кінокомпанія: Lakeshore Entertainment
Режисер: Роберт Лукетіч
Актори: Кетрін Гейґл, Джерард Батлер, Брі Тернер, Джон Майкл Хіггінс, Ерік Вiнтер
Сюжет:
У пошуках свіжих варіантів “фабрика мрій” вирішила поєднати типовий сюжет романтичної комедії з елементами комедії “фареллівської”. Щоправда, визначення не дуже точне, але кращого не знайшлося (мабуть, кіно-таки вийшло більш-менш оригінальне): з одного боку – майже класична фабула про протилежності, які притягуються, з іншого – підвищена увага до інтимних аспектів особистого життя дорослих людей, які у фільмах подібного жанру зазвичай ігнорували.

Увага ця, втім, переважно словесного характеру, тому не сприятиме особливому дискомфорту – вона здебільшого пов’язана лише з тим, наскільки відверто головний герой висловлює свою думку про стосунки між статями. І, на щастя, головне у стрічці не це, а характери персонажів, тому навіть епізоди на кшталт сцени на стадіоні не псують загальне враження завдяки влучним коментарям (“Ростеш, Еббі”). Та й герой-ведучий тільки на перший погляд може здатись схибленим на сексі неандертальцем, насправді ж він природжений психолог, вправний маніпулятор, який точно знає, що потрібно публіці, і до того ж по-справжньому добра людина, завжди готова допомогти іншому.

Сценарій досить непоганий як для картин такого жанру, але головне достоїнство фільму – актори, точніше, той факт, що вони ще “незатаскані” у подібних фільмах. Спробуйте уявити на місці головних виконавців Джулію Робертс та Річарда Ґіра або Мег Раян та Тома Хенкса чи іншу класичну романтичну пару – навіть не зараз, а років двадцять тому. Якось не виходить. Тоді як Батлер після “300 спартанців” ніби сам проситься на роль брутального самця, який насправді виявиться чудовим хлопцем, а Хейгл не тільки демонструє вправність у сценах, яких від неї слід було чекати після “Трішки вагітної”, але й, в принципі, таки грає.

Підсумок: дуже непоганий зразок романтичної комедії по-сучасному (любителі романтики старомодної точно прийдуть не на своє кіно) з добре підібраними акторами, одним котом і досить продуманим сценарієм. Як сказав один з солдатів, яких приводять на сеанс строєм: “Якби фінал змінити, все було б добре”. І він таки правий – солдати в кіно майже завжди праві.


Тривалість: 01:35:57
Якість:
Відео:
кодек: H.265 (HEVC)
розмір кадру: 1920 x 800
бітрейт: 8 748 кб/с
частота кадрів: 23.976 fps
біт піксель: 0.238 BPP (Bits Per Pixel)
бітова глибина: 10 біт
Увага! Перед завантаженням переконайтесь, що ваш пристрій відтворення (та/або ПЗ) підтримує H.265 (HEVC)

Аудіо # 1:
мова: українська
переклад: професійний дубльований
кодек: AC-3 5.1
бітрейт: 640 кб/с

Аудіо # 2:
мова: українська
переклад: двоголосий закадровий
кодек: AC-3 2.0
бітрейт: 192 кб/с

Аудіо # 3:
мова: англійська
переклад: оригінал
кодек: 5.1
бітрейт: 1510 кб/с

Субтитри # 1:
мова: українська (Forced),
тип: програмні (м'які)
формат: *.srt

Субтитри # 2:
мова: англійська (Full),
тип: програмні (м'які)
формат: *.srt


Info
Код:
General
Unique ID                                : 218873474342248953351454920732226011071 (0xA4A97F71936EE0136859DDF19106BFBF)
Complete name                            : G:\Video\Films\Collection\The Ugly Truth (2009) 1080p H.265 [2xUKR_ENG].
Format                                   :
Format version                           : Version 4 / Version 2
File size                                : 7.43 GiB
Duration                                 : 1 h 35 min
Overall bit rate                         : 11.1 Mb/s
Movie name                               : The Ugly Truth (2009)
Encoded date                             : UTC 2018-12-01 20:13:16
Writing application                      : v20.0.0 ('I Am The Sun') 32-bit
Writing library                          : libebml v1.3.5 + v1.4.8
Cover                                    : Yes
Attachments                              : Cover.jpg

Video
ID                                       : 1
Format                                   : HEVC
Format/Info                              : High Efficiency Video Coding
Codec ID                                 : V_MPEGH/ISO/HEVC
Duration                                 : 1 h 35 min
Bit rate                                 : 8 747 kb/s
Width                                    : 1 920 pixels
Height                                   : 800 pixels
Display aspect ratio                     : 2.40:1
Frame rate mode                          : Constant
Frame rate                               : 23.976 (24000/1001) FPS
Color space                              : YUV
Chroma subsampling                       : 4:2:0
Bit depth                                : 10 bits
Bits/(Pixel*Frame)                       : 0.238
Stream size                              : 5.86 GiB (79%)
Title                                    : The Ugly Truth (2009)
Writing library                          : x265 2.8+74-fd517ae68f93:[Windows][GCC 7.3.0][64 bit] 10bit
Encoding settings                        : cpuid=1111039 / frame-threads=13 / numa-pools=12 / wpp / no-pmode / no-pme / no-psnr / no-ssim / log-level=3 / input-csp=1 / input-res=1920x800 / interlace=0 / total-frames=0 / level-idc=41 / high-tier=1 / uhd-bd=0 / ref=7 / allow-non-conformance / no-repeat-headers / annexb / no-aud / no-hrd / info / hash=0 / no-temporal-layers / no-open-gop / min-keyint=24 / keyint=240 / gop-lookahead=0 / bframes=9 / b-adapt=2 / b-pyramid / bframe-bias=0 / rc-lookahead=40 / lookahead-slices=5 / scenecut=40 / radl=0 / no-intra-refresh / ctu=64 / min-cu-size=8 / rect / amp / max-tu-size=32 / tu-inter-depth=1 / tu-intra-depth=1 / limit-tu=0 / rdoq-level=0 / dynamic-rd=0.00 / no-ssim-rd / signhide / no-tskip / nr-intra=0 / nr-inter=0 / no-constrained-intra / no-strong-intra-smoothing / max-merge=2 / limit-refs=3 / no-limit-modes / me=3 / subme=7 / merange=57 / temporal-mvp / weightp / no-weightb / no-analyze-src-pics / deblock=-2:-2 / no-sao / no-sao-non-deblock / rd=3 / no-early-skip / rskip / no-fast-intra / no-tskip-fast / no-cu-lossless / no-b-intra / no-splitrd-skip / rdpenalty=0 / psy-rd=2.00 / psy-rdoq=0.00 / no-rd-refine / no-lossless / cbqpoffs=0 / crqpoffs=0 / rc=crf / crf=19.0 / qcomp=0.60 / qpstep=4 / stats-write=0 / stats-read=0 / vbv-maxrate=50000 / vbv-bufsize=50000 / vbv-init=0.9 / crf-max=0.0 / crf-min=0.0 / ipratio=1.40 / pbratio=1.30 / aq-mode=1 / aq-strength=1.00 / cutree / zone-count=0 / no-strict-cbr / qg-size=32 / no-rc-grain / qpmax=69 / qpmin=0 / no-const-vbv / sar=1 / overscan=0 / videoformat=5 / range=0 / colorprim=1 / transfer=1 / colormatrix=1 / chromaloc=0 / display-window=0 / max-cll=0,0 / min-luma=0 / max-luma=1023 / log2-max-poc-lsb=8 / vui-timing-info / vui-hrd-info / slices=1 / no-opt-qp-pps / no-opt-ref-list-length-pps / no-multi-pass-opt-rps / scenecut-bias=0.05 / no-opt-cu-delta-qp / no-aq-motion / no-hdr / no-hdr-opt / no-dhdr10-opt / no-idr-recovery-sei / analysis-reuse-level=5 / scale-factor=0 / refine-intra=0 / refine-inter=0 / refine-mv=0 / no-limit-sao / ctu-info=0 / no-lowpass-dct / refine-mv-type=0 / copy-pic=1 / max-ausize-factor=1.0 / no-dynamic-refine / no-single-sei
Default                                  : Yes
Forced                                   : No
Color range                              : Limited
Color primaries                          : BT.709
Transfer characteristics                 : BT.709
Matrix coefficients                      : BT.709

Audio #1
ID                                       : 2
Format                                   : AC-3
Format/Info                              : Audio Coding 3
Codec ID                                 : A_AC3
Duration                                 : 1 h 35 min
Bit rate mode                            : Constant
Bit rate                                 : 640 kb/s
Channel(s)                               : 6 channels
Channel positions                        : Front: L C R, Side: L R, LFE
Sampling rate                            : 48.0 kHz
Frame rate                               : 31.250 FPS (1536 SPF)
Bit depth                                : 16 bits
Compression mode                         : Lossy
Stream size                              : 439 MiB (6%)
Title                                    : ПД - Blu-Ray
Language                                 : Ukrainian
Service kind                             : Complete Main
Default                                  : Yes
Forced                                   : Yes

Audio #2
ID                                       : 3
Format                                   : AC-3
Format/Info                              : Audio Coding 3
Codec ID                                 : A_AC3
Duration                                 : 1 h 35 min
Bit rate mode                            : Constant
Bit rate                                 : 192 kb/s
Channel(s)                               : 2 channels
Channel positions                        : Front: L R
Sampling rate                            : 48.0 kHz
Frame rate                               : 31.250 FPS (1536 SPF)
Bit depth                                : 16 bits
Compression mode                         : Lossy
Stream size                              : 132 MiB (2%)
Title                                    : ДЗ - Novy Kanal
Language                                 : Ukrainian
Service kind                             : Complete Main
Default                                  : No
Forced                                   : No

Audio #3
ID                                       : 4
Format                                   :
Format/Info                              : Digital Theater Systems
Codec ID                                 : A_DTS
Duration                                 : 1 h 35 min
Bit rate mode                            : Constant
Bit rate                                 : 1 509 kb/s
Channel(s)                               : 6 channels
Channel positions                        : Front: L C R, Side: L R, LFE
Sampling rate                            : 48.0 kHz
Frame rate                               : 93.750 FPS (512 SPF)
Bit depth                                : 24 bits
Compression mode                         : Lossy
Stream size                              : 1.01 GiB (14%)
Title                                    : 5.1 1536 кб/с | Original
Language                                 : English
Default                                  : No
Forced                                   : No

Text #1
ID                                       : 5
Format                                   : UTF-8
Codec ID                                 : S_TEXT/UTF8
Codec ID/Info                            : UTF-8 Plain Text
Duration                                 : 1 h 2 min
Bit rate                                 : 0 b/s
Count of elements                        : 8
Stream size                              : 269 Bytes (0%)
Title                                    : Forced
Language                                 : Ukrainian
Default                                  : Yes
Forced                                   : Yes

Text #2
ID                                       : 6
Format                                   : UTF-8
Codec ID                                 : S_TEXT/UTF8
Codec ID/Info                            : UTF-8 Plain Text
Duration                                 : 1 h 30 min
Bit rate                                 : 89 b/s
Count of elements                        : 1506
Stream size                              : 59.3 KiB (0%)
Title                                    : Full
Language                                 : English
Default                                  : No
Forced                                   : No

Menu #1
00:00:00.000                             : en:00:00:00.000
00:05:00.000                             : en:00:05:00.000
00:10:00.000                             : en:00:10:00.000
00:15:00.000                             : en:00:15:00.000
00:20:00.000                             : en:00:20:00.000
00:25:00.000                             : en:00:25:00.000
00:30:00.000                             : en:00:30:00.000
00:35:00.000                             : en:00:35:00.000
00:40:00.000                             : en:00:40:00.000
00:45:00.000                             : en:00:45:00.000
00:50:00.000                             : en:00:50:00.000
00:55:00.000                             : en:00:55:00.000
01:00:00.000                             : en:01:00:00.000
01:05:00.000                             : en:01:05:00.000
01:10:00.000                             : en:01:10:00.000
01:15:00.000                             : en:01:15:00.000
01:20:00.000                             : en:01:20:00.000
01:25:00.000                             : en:01:25:00.000
01:30:00.000                             : en:01:30:00.000
01:35:00.000                             : en:01:35:00.000

Menu #2
00:00:00.054                             : en:00:00:00.054
Світлини




Джерело:
Особиста оцінка: 10 - рекомендую до перегляду


>>> Усі мої релізи <<<



 Трекер:    Зареєстрований   

Завантажити / скачати фільм українською



відео для новачків



 Зареєстрований:   2018-12-02 00:26
 Розмір:   7.43 GB 
 Оцінка фільму:   9.5/10 (Голосів: 4)
   
Інші релізи
   Гола правда / The Ugly Truth (2009) 1080p 2xUkr/Eng | Sub Eng staf777  2 / 0   7.46 GB   2018-11-12 17:28 
   Гола правда / The Ugly Truth (2009) AVC 2xUkr/Eng | Sub Eng staf777  5 / 0   2.27 GB   2018-11-11 21:01 
   Гола правда / The Ugly Truth (2009) 1080p [Open Matte] 2xUkr/Eng | Sub Eng Pegass  2 / 0   8.1 GB   2018-06-15 23:14 
   Гола правда / The Ugly Truth (2009) | [480 x 200] Skillters  1 / 0   493 MB   2016-12-05 19:25 
   Гола правда / The Ugly Truth (2009) 720p 2xUkr/Eng | Sub Eng kino.  1 / 0   5.66 GB   2014-01-11 16:42 
   Гола правда / The Ugly Truth (2009) 2xUkr/Eng xslim  6 / 0   1.85 GB   2012-06-01 20:00 
Ваш часовий пояс: GMT + 2 Години

Нова тема   Відповісти