Аватар: Останній Захисник / Avatar: The Last Airbender (Сезон 1) (2003) 1080p Ukr/Eng | sub Eng

Нові коментарі

Нова тема   Відповісти
Автор Повідомлення
sergiyko.5 
Забанено
Забанено


З нами з: 25.02.16
Востаннє: 29.10.20
Повідомлень: 3648

2018-12-01 19:49  


Аватар: Останній Захисник / Avatar: The Last Airbender (Сезон 1) (2003) 1080p Ukr/Eng | sub Eng

Аватар: Останній Захисник / Avatar: The Last Airbender (Сезон 1) (2003) 1080p Ukr/Eng | sub Eng

Жанр: анімація, фентезі, пригодницький, комедія, сімейний
Країна: США
Режисер: Майкл Данте ДіМартіно

Сюжет:
Світ поділений на чотири Нації: Води, Землі, Повітря й Вогню. У кожної Нації є людина, яка володіє здібностями керувати своєю стихією. Вони називають себе магами Води, Землі, Вогню і Повітря. Найсильніший Володар світу і єдиний, хто може керувати всіма чотирма стихіями, - Аватар - воскресає для кожного Народу раз на сто років.
Коли жорстокий Нація Вогню загрожує поневолити Нації Води, Землі і Повітря, запеклому й пустотливому хлопчиську належить зустріти свою долю, долю Аватара, обраного, якому судилося відновити рівновагу в світі.




Тривалість: 1 серія: 23:39 (цілком серій: 20 з 20)
Якість:

Відео: кодек: розмір кадру: 1440 х 1080 бітрейт: 5330 кб/с
Аудіо # 1: мова: українська переклад: багатоголосий закадровий кодек: 2.0 бітрейт: 192 кб/с
Озвучення:
Аудіо # 2: мова: англійська переклад: оригінал кодек: -HD 2.0 бітрейт: 1802 кб/с
Субтитри: мова: англійська тип: програмні (м’які) формат: *.srt
Перелік серій
Книга перша: Вода
Розділ 1 Хлопчик у айсбергу (англ. The Boy in the Iceberg)
Розділ 2 Повернення Аватара (англ. The Avatar Returns)
Розділ 3 Південний Храм Повітря (англ. The Southern Air Temple)
Розділ 4 Воїни Кіоші (англ. The Warriors of Kyoshi)
Розділ 5 Король Омашу (англ. The King of Omashu)
Розділ 6 Ув'язнений (англ. Imprisoned)
Розділ 7 Світ Духів: Зимове Сонцестояння, Частина 1 (англ. The Spirit World: Winter Solstice, Part 1)
Розділ 8 Аватар Року: Зимове Сонцестояння, Частина 2 (англ. Avatar Roku: Winter Solstice, Part 2)
Розділ 9 Сувій підкорення води (англ. The Waterbending Scroll)
Розділ 10 Джет (англ. Jet)
Розділ 11 Великий каньйон (англ. The Great Divide)
Розділ 12 Шторм (англ. The Storm)
Розділ 13 Блактиний дух (англ. The Blue Spirit)
Розділ 14 Ворожка (англ. The Fortuneteller)
Розділ 15 Бато з племені Води (англ. Bato of the Water Tribe)
Розділ 16 Дезертир (англ. The Deserter)
Розділ 17 Північний Храм Повітря (англ. The Northern Air Temple)
Розділ 18 Майстер Води (англ. The Waterbending Master)
Розділ 19 Облога Півночі, Частина 1 (англ. The Siege of the North, Part I)
Розділ 20 Облога Півночі, Частина 2 (англ. The Siege of the North, Part II)
Про файл:
General
Unique ID : 275235548720929726934026770867515716705 (0xCF107041CED3582316128E0122327461)
Complete name : G:\Torrents2\MULT\Avatar. The Last Air Bender 1080p \Avatar. The Last Air Bender S01 1080p \S01E01.The Boy in the Iceberg.1080p..
Format :
Format version : Version 4
File size : 1.21 GiB
Duration : 23 min 39 s
Overall bit rate mode : Variable
Overall bit rate : 7 327 kb/s
Movie name : Avatar. The Last Air Bender 1080p by sergiyko
Encoded date : UTC 2018-11-20 18:21:10
Writing application : v28.1.0 ('Morning Child') 64-bit
Writing library : libebml v1.3.6 + v1.4.9

Video
ID : 1
Format : AVC
Format/Info : Advanced Video Codec
Format profile : [email protected]
Format settings : CABAC / 8 Ref Frames
Format settings, CABAC : Yes
Format settings, ReFrames : 8 frames
Codec ID : V_MPEG4/ISO/AVC
Duration : 23 min 39 s
Bit rate : 5 329 kb/s
Width : 1 440 pixels
Height : 1 080 pixels
Display aspect ratio : 4:3
Frame rate mode : Constant
Frame rate : 23.976 (24000/1001) FPS
Color space : YUV
Chroma subsampling : 4:2:0
Bit depth : 8 bits
Scan type : Progressive
Bits/(Pixel*Frame) : 0.143
Stream size : 902 MiB (73%)
Title : S01E01.The Boy in the Iceberg
Writing library : core 152 r2851 ba24899
Encoding settings : cabac=1 / ref=8 / deblock=1:0:0 / analyse=0x3:0x133 / me=umh / subme=10 / psy=1 / psy_rd=0.40:0.00 / mixed_ref=1 / me_range=24 / chroma_me=1 / trellis=2 / 8x8dct=1 / cqm=0 / deadzone=21,11 / fast_pskip=0 / chroma_qp_offset=-2 / threads=24 / lookahead_threads=2 / sliced_threads=0 / nr=0 / decimate=1 / interlaced=0 / bluray_compat=0 / constrained_intra=0 / bframes=5 / b_pyramid=2 / b_adapt=1 / b_bias=0 / direct=3 / weightb=0 / open_gop=0 / weightp=2 / keyint=250 / keyint_min=23 / scenecut=40 / intra_refresh=0 / rc_lookahead=50 / rc=crf / mbtree=1 / crf=16.0 / qcomp=0.70 / qpmin=0 / qpmax=69 / qpstep=4 / ip_ratio=1.40 / aq=1:0.60
Language : Japanese
Default : Yes
Forced : No

Audio #1
ID : 2
Format : AC-3
Format/Info : Audio Coding 3
Commercial name : Dolby Digital
Codec ID : A_AC3
Duration : 23 min 39 s
Bit rate mode : Constant
Bit rate : 192 kb/s
Channel(s) : 2 channels
Channel layout : L R
Sampling rate : 48.0 kHz
Frame rate : 31.250 FPS (1536 SPF)
Bit depth : 16 bits
Compression mode : Lossy
Stream size : 32.5 MiB (3%)
Title : MOV | QTV
Language : Ukrainian
Service kind : Complete Main
Default : Yes
Forced : Yes

Audio #2
ID : 3
Format : XLL
Format/Info : Digital Theater Systems
Commercial name : -HD Master Audio
Codec ID : A_DTS
Duration : 23 min 39 s
Bit rate mode : Variable
Bit rate : 1 802 kb/s
Channel(s) : 2 channels
Channel layout : L R
Sampling rate : 48.0 kHz
Frame rate : 93.750 FPS (512 SPF)
Bit depth : 24 bits
Compression mode : Lossless
Stream size : 305 MiB (25%)
Language : English
Default : No
Forced : No

Text
ID : 4
Format : UTF-8
Codec ID : S_TEXT/UTF8
Codec ID/Info : UTF-8 Plain Text
Duration : 22 min 53 s
Bit rate : 74 b/s
Count of elements : 382
Stream size : 12.5 KiB (0%)
Language : English
Default : No
Forced : No
Скріншоти:


Автор ріпів/зведення: sergiyko


Бронзовий реліз (на рейтинг впливає 75% завантаженого)
 Трекер:    Зареєстрований   

Завантажити / скачати мультфільм українською



відео для новачків



 Зареєстрований:   2019-06-11 19:30
 Розмір:   23.54 GB 
 Оцінка мультсеріалу:   9.9/10 (Голосів: 18)
   
T-Mon 
Попереджень: 1
Попереджень: 1 


З нами з: 30.07.10
Востаннє: 19.04.21
Повідомлень: 108

2018-12-01 22:26  
removed
sergiyko.5 
Забанено
Забанено


З нами з: 25.02.16
Востаннє: 29.10.20
Повідомлень: 3648

2019-01-24 20:41  
Додав 2-5 серії.
Virake 
Localize Team
Localize Team


З нами з: 07.07.09
Востаннє: 20.04.21
Повідомлень: 7208

2019-01-24 22:08  
за скрінами схоже на апскейл.
Pasha707 
Новенький


З нами з: 19.08.17
Востаннє: 12.02.20
Повідомлень: 20

2019-01-25 17:06  
ООООО дуже, дуже дякую за цей мультсерiал, давно чекав с украiською озвучкою
bibrik 
Частий відвідувач


З нами з: 15.10.16
Востаннє: 10.06.19
Повідомлень: 48

2019-05-07 19:16  
Чому тільки 5 серій? Cry (1)
sergiyko.5 
Забанено
Забанено


З нами з: 25.02.16
Востаннє: 29.10.20
Повідомлень: 3648

2019-06-11 19:31  
Додав серії до повного першого сезону.
-VJ- 
VIP


З нами з: 01.11.09
Востаннє: 19.04.21
Повідомлень: 807

2019-09-18 13:58  
sergiyko.5 написано:
Додав серії до повного першого сезону.


В 720 вже є всі три, але я вірно чекаю 1080 Happy

sergiyko.5 
Забанено
Забанено


З нами з: 25.02.16
Востаннє: 29.10.20
Повідомлень: 3648

2019-09-18 15:52  
Не цікаво просто вставляти дороги. І місця залишилось небагато.

Додано через 1 годину 46 хвилин 12 секунд:

-VJ-
Бажаячих вантажити одиниці, та й сенсу нема. В мене ріпи мають кадр 1440 х 1080, в тому релізі 960 х 720. Відео стареньке і високою якістю не відрізняється.

vyttftyujj65 
Новенький


З нами з: 17.03.20
Востаннє: 19.03.20
Повідомлень: 1

2020-03-19 20:55  
Коли другий і третій сезон в 1080p?
Ваш часовий пояс: GMT + 2 Години

Нова тема   Відповісти