Метелик / Papillon (2017) Remux 1080p Ukr/Eng | Sub Eng

Нові коментарі

Нова тема   Відповісти
Автор Повідомлення
staf777 
Відео Гуртом - підтримка та поширення
Відео Гуртом - підтримка та поширення


З нами з: 16.11.16
Востаннє: 24.04.19
Повідомлень: 2284

2018-12-01 10:41  
Метелик / Papillon (2017) Remux 1080p Ukr/Eng | Sub Eng

Метелик / Papillon (2017) Remux 1080p Ukr/Eng | Sub Eng


Жанр: кримінал, драма, детектив, трилер
Країна: США, Іспанія, Чехія



Кінокомпанія: CCzech Anglo Productions, FishCorb Films, Red Granite Pictures
Режисер: Міхаель Ноер
Актори: Чарлі Ганнем, Рамі Малек, Ів Х'юсон, Роланд Мюллер, Томмі Фленаґан, Ніна Сенікар, Крістофер Фейрбенк, Аттіла Арпа, Славко Собін, Деметрі Горіцас та інші

Сюжет:
У 1931 році Анрі Шарьєра безпідставно звинувачують у вбивстві та ув'язнюють у одну з найсуворіших тюрем тогочасного світу. Кожен день перебування у неволі Анрі присвятив розробці плану втечі. За час ув'язнення він здійснив дев'ять спроб вибратися на волю. Зрештою йому таки вдалося втекти завдяки союзу з фальшивомонетником Луї Дега. Це сталося в 1941 році.


Тривалість: 02:13:14
Якість: Remux 1080p
Відео:
кодек:
розмір кадру: 1920x1080
бітрейт: 32,5 Mб/с

Аудіо # 1:
мова: українська
переклад: професійний дубльований | студія AAA-Sound
кодек: 2.0 [стерео]
бітрейт: 192 кб/с

Аудіо # 2:
мова: англійська
переклад: оригінал
кодек: -HD MA 5.1
бітрейт: 3644 кб/с

Субтитри:
мова: англійська
тип: програмні (м'які)
формат: *.srt
Info
General
Unique ID : 5786906826287532816385152616099291328 (0x45A8488EB2BD196F846F412452920C0)
Complete name : G:\Papillon (2017) Remux 1080p [UKR][ENG][Hurtom].
Format :
Format version : Version 4 / Version 2
File size : 33.8 GiB
Duration : 2 h 13 min
Overall bit rate mode : Variable
Overall bit rate : 36.3 Mb/s
Movie name : Papillon (2017) Remux 1080p [UKR][ENG][Hurtom]
Encoded date : UTC 2018-12-01 09:47:31
Writing application : v24.0.0 ('Beyond The Pale') 64-bit
Writing library : libebml v1.3.6 + v1.4.9
Cover : Yes
Attachments : cover.jpg

Video
ID : 1
Format : AVC
Format/Info : Advanced Video Codec
Format profile : [email protected]
Format settings : CABAC / 4 Ref Frames
Format settings, CABAC : Yes
Format settings, ReFrames : 4 frames
Codec ID : V_MPEG4/ISO/AVC
Duration : 2 h 13 min
Bit rate mode : Variable
Bit rate : 32.5 Mb/s
Maximum bit rate : 35.0 Mb/s
Width : 1 920 pixels
Height : 1 080 pixels
Display aspect ratio : 16:9
Frame rate mode : Constant
Frame rate : 23.976 (24000/1001) FPS
Color space : YUV
Chroma subsampling : 4:2:0
Bit depth : 8 bits
Scan type : Progressive
Bits/(Pixel*Frame) : 0.653
Stream size : 30.2 GiB (89%)
Title : Papillon (2017) Remux.1080p.NNMClub
Language : English
Default : Yes
Forced : No

Audio #1
ID : 2
Format : AC-3
Format/Info : Audio Coding 3
Codec ID : A_AC3
Duration : 2 h 13 min
Bit rate mode : Constant
Bit rate : 192 kb/s
Channel(s) : 2 channels
Channel positions : Front: L R
Sampling rate : 48.0 kHz
Frame rate : 31.250 FPS (1536 SPF)
Bit depth : 16 bits
Compression mode : Lossy
Stream size : 183 MiB (1%)
Title : [UKR-DUB]
Language : Ukrainian
Service kind : Complete Main
Default : Yes
Forced : Yes

Audio #2
ID : 3
Format :
Format/Info : Digital Theater Systems
Format profile : MA / Core
Codec ID : A_DTS
Duration : 2 h 13 min
Bit rate mode : Variable / Constant
Bit rate : 3 644 kb/s / 1 509 kb/s
Channel(s) : 6 channels
Channel positions : Front: L C R, Side: L R, LFE
Sampling rate : 48.0 kHz
Frame rate : 93.750 FPS (512 SPF)
Bit depth : 24 bits
Compression mode : Lossless / Lossy
Stream size : 3.39 GiB (10%)
Language : English
Default : No
Forced : No

Text
ID : 4
Format : UTF-8
Codec ID : S_TEXT/UTF8
Codec ID/Info : UTF-8 Plain Text
Duration : 2 h 12 min
Bit rate : 32 b/s
Count of elements : 1227
Stream size : 31.5 KiB (0%)
Title : SDH
Language : English
Default : No
Forced : No

Menu
00:00:00.000 : en:Chapter 1
00:08:16.621 : en:Chapter 2
00:16:47.590 : en:Chapter 3
00:21:25.910 : en:Chapter 4
00:26:31.965 : en:Chapter 5
00:30:39.796 : en:Chapter 6
00:34:10.799 : en:Chapter 7
00:44:51.147 : en:Chapter 8
00:52:54.588 : en:Chapter 9
00:59:03.665 : en:Chapter 10
01:04:12.891 : en:Chapter 11
01:12:18.334 : en:Chapter 12
01:20:35.372 : en:Chapter 13
01:24:08.418 : en:Chapter 14
01:35:19.547 : en:Chapter 15
01:40:53.047 : en:Chapter 16
01:47:10.883 : en:Chapter 17
01:57:03.016 : en:Chapter 18
02:02:58.913 : en:Chapter 19
02:05:57.550 : en:Chapter 20






Джерело: &
Особиста оцінка: 8 - мені сподобалося
Метелик / Papillon (2017) Remux 1080p Ukr/Eng | Sub Eng Метелик / Papillon (2017) Remux 1080p Ukr/Eng | Sub Eng


Подяка пану Electroz за доріжку
Підтримати купівлю інших фільмів можна тут.


Золотий реліз (завантажене не впливає на рейтинг)
 Трекер:    Зареєстрований   

Завантажити / скачати фільм українською



відео для новачків



 Зареєстрований:   2018-12-01 13:33
 Розмір:   33.79 GB 
 Оцінка фільму:   9.2/10 (Голосів: 23)
   
Інші релізи
   Метелик / Papillon (2017) 1080p H.265 Ukr/Eng | Sub Eng -Star-Lord-  19 / 0   6.4 GB   2018-11-28 00:19 
   Метелик / Papillon (2017) AVC Ukr/Eng | Sub Eng 11FrYkT  90 / 0   2.75 GB   2018-11-27 19:05 
   Метелик / Papillon (2017) 1080p Ukr/Eng | Sub Eng staf777  12 / 0   11.23 GB   2018-11-27 01:23 
   Метелик / Papillon (2017) 720p Ukr/Eng | Sub Eng staf777  30 / 0   6.2 GB   2018-11-27 00:48 
   Метелик / Papillon (2017) Electroz  31 / 4   1.46 GB   2018-11-26 23:52 
bot 
робот


З нами з: 30.09.07
Востаннє: 26.05.05
Повідомлень: 21241

2018-12-01 13:33  
Тему перенесено з Анонси релізів до форуму Фільми в HD


staf777

[email protected] 
VIP


З нами з: 25.03.17
Востаннє: 21.04.19
Повідомлень: 292

2018-12-02 18:30  
Враховуючи те що фільм знятий на основі реальних подій, то цікаво подивитись...
+380954897458 
Поважний учасник


З нами з: 02.06.17
Востаннє: 23.04.19
Повідомлень: 221

2018-12-02 20:43  
[email protected]
Краще подивіться фільм 73-го року. Ото де шедевр поза всяким сумнівом. Після Стіва Макквіна я нікого не сприймаю цій ролі.

Oleksa_64 
Свій


З нами з: 25.07.13
Востаннє: 24.04.19
Повідомлень: 58

2018-12-07 08:14  
Як по мені фільм кращий ніж фільм 1973 року, але все одно, якщо порівняти з книгою, дуже багато пригод головного героя пропущено. Звичайно зрозуміло, що час фільму не гумовий, але...
Quq 
Новенький


З нами з: 06.06.16
Востаннє: 24.04.19
Повідомлень: 6

2018-12-07 20:16  
дуже гарний фільм, давно так не насолоджувався
ukraine2015 
Новенький


З нами з: 18.08.14
Востаннє: 22.04.19
Повідомлень: 14

2018-12-09 23:28  
Кіно ще не дивився. Але книжку читав колись, і перечитував - це шедевр!!!!
Shekanchik 
Новенький


З нами з: 12.12.15
Востаннє: 06.04.19
Повідомлень: 1

2019-02-13 22:52  
Чесно кажучи не полюбляю я цей жанр. але кінчик так ничого... Автору запитання: де ви знайшли такий чудовий 34 гб реліз аж з двома каналами аудіо? Я мабуть таке бачу уперше, тепрер обов"язково буду дивитись у техданні перед завантаженням.
Ваш часовий пояс: GMT + 2 Години

Нова тема   Відповісти