Праведник. Диологія / The Equalizer. Diology (2014/2018) 1080p H.265 Ukr/Eng | Sub Eng

Нові коментарі

Нова тема   Відповісти
Автор Повідомлення
Anonymous 







2018-12-01 00:02  
Праведник. Диологія / The Equalizer. Diology (2014/2018) 1080p H.265 Ukr/Eng | Sub Eng

Праведник. Диологія / The Equalizer. Diology (2014/2018) 1080p H.265 Ukr/Eng | Sub Eng

Кінокомпанія: Sony Pictures, Columbia Pictures, Escape Artists, Lionsgate, Lonetree Entertainment, LStar Capital, Mace Neufeld Productions, Village Roadshow Pictures
Жанр: екшн, кримінальний, триллер
Режисер: Антуан Фукуа
Країна: США

1. 2.

1. Праведник / The Equalizer (2014) 1080p H.265 Ukr/Eng | Sub Eng
Праведник / The Equalizer (2014) 1080p H.265 Ukr/Eng | Sub Eng

Праведник. Диологія / The Equalizer. Diology (2014/2018) 1080p H.265 Ukr/Eng | Sub Eng


Жанр: екшн, кримінальний, триллер
Країна: США
Кінокомпанія: Columbia Pictures, Escape Artists, Lionsgate, Lonetree Entertainment, LStar Capital, Mace Neufeld Productions, Village Roadshow Pictures
Режисер: Антуан Фукуа
Актори: Дензел Вашинґтон, Мартон Чокаш, Хлоя Ґрейс Морец , Девід Харбор, Хейлі Беннетт, Білл Пуллман, Мелісса Лео, Девід Мюньє, Джонні Скуртіс, Алекс Видів
Сюжет:
Роберт Макколл - колишній спецназівець. Після звільнення зі служби він збирається почати нормальне мирне життя, давши собі обіцянку, більше ніколи не брати в руки зброї. Але в один прекрасний момент він зустрічає молоду дівчину, яка заробляє на життя проституцією, яку на його очах б'ють бандити і відвозять у невідомому напрямку. Тоді він вирішує відшукати її, після чого вступає в нерівну сутичку з російською мафією і продажними агентами ЦРУ. Заради справедливості він готовий порушити власну обіцянку і застосувати зброю проти людей, які просто не заслуговують жити в цьому світі ...

Тривалість: 02:12:02
Якість:
Відео:
кодек: H.265 (HEVC)
розмір кадру: 1920 x 800
бітрейт: 4 982 кб/с
частота кадрів: 23.976 fps
біт піксель: 0.135 BPP (Bits Per Pixel)
бітова глибина: 10 біт
Увага! Перед завантаженням переконайтесь, що ваш пристрій відтворення (та/або ПЗ) підтримує H.265 (HEVC)

Аудіо # 1:
мова: українська
переклад: професійний дубльований
кодек: AC-3 5.1
бітрейт: 640 кб/с

Аудіо # 2:
мова: англійська
переклад: оригінал
кодек: AC-3 5.1
бітрейт: 448 кб/с

Субтитри # 1:
мова: англійська (Forced),
тип: програмні (м'які)
формат: *.srt

Субтитри # 2:
мова: англійська (Full),
тип: програмні (м'які)
формат: *.srt

Субтитри # 3:
мова: англійська (SDH),
тип: програмні (м'які)
формат: *.srt

Субтитри # 4:
мова: англійська (SDH-Colored),
тип: програмні (м'які)
формат: *.srt


Info
Код:
General
Unique ID                                : 99222576357807571705105115172304574158 (0x4AA592B676B4D42ECDD0C9BAD1FBD6CE)
Complete name                            : G:\Video\Films\Collection\The Equalizer. Diology (2014, 2018) 1080p H.265\1. The Equalizer (2014) 1080p H.265 [UKR_ENG].
Format                                   :
Format version                           : Version 4 / Version 2
File size                                : 5.60 GiB
Duration                                 : 2 h 12 min
Overall bit rate                         : 6 072 kb/s
Movie name                               : The Equalizer (2014)
Encoded date                             : UTC 2018-11-13 19:34:22
Writing application                      : v20.0.0 ('I Am The Sun') 32-bit
Writing library                          : libebml v1.3.5 + v1.4.8
Cover                                    : Yes
Attachments                              : Cover.jpg

Video
ID                                       : 1
Format                                   : HEVC
Format/Info                              : High Efficiency Video Coding
Format profile                           : Main [email protected]@Main
Codec ID                                 : V_MPEGH/ISO/HEVC
Duration                                 : 2 h 12 min
Bit rate                                 : 4 982 kb/s
Width                                    : 1 920 pixels
Height                                   : 800 pixels
Display aspect ratio                     : 2.40:1
Frame rate mode                          : Constant
Frame rate                               : 23.976 (24000/1001) FPS
Color space                              : YUV
Chroma subsampling                       : 4:2:0
Bit depth                                : 10 bits
Bits/(Pixel*Frame)                       : 0.135
Stream size                              : 4.59 GiB (82%)
Title                                    : The Equalizer (2014)
Default                                  : Yes
Forced                                   : No
Color range                              : Limited
Color primaries                          : BT.709
Transfer characteristics                 : BT.709
Matrix coefficients                      : BT.709

Audio #1
ID                                       : 2
Format                                   : AC-3
Format/Info                              : Audio Coding 3
Codec ID                                 : A_AC3
Duration                                 : 2 h 12 min
Bit rate mode                            : Constant
Bit rate                                 : 640 kb/s
Channel(s)                               : 6 channels
Channel positions                        : Front: L C R, Side: L R, LFE
Sampling rate                            : 48.0 kHz
Frame rate                               : 31.250 FPS (1536 SPF)
Bit depth                                : 16 bits
Compression mode                         : Lossy
Stream size                              : 604 MiB (11%)
Title                                    : 5.1 @ 640 kbps
Language                                 : Ukrainian
Service kind                             : Complete Main
Default                                  : Yes
Forced                                   : Yes

Audio #2
ID                                       : 3
Format                                   : AC-3
Format/Info                              : Audio Coding 3
Codec ID                                 : A_AC3
Duration                                 : 2 h 12 min
Bit rate mode                            : Constant
Bit rate                                 : 448 kb/s
Channel(s)                               : 6 channels
Channel positions                        : Front: L C R, Side: L R, LFE
Sampling rate                            : 48.0 kHz
Frame rate                               : 31.250 FPS (1536 SPF)
Bit depth                                : 16 bits
Compression mode                         : Lossy
Stream size                              : 423 MiB (7%)
Title                                    : 5.1 @ 448 kbps
Language                                 : English
Service kind                             : Complete Main
Default                                  : No
Forced                                   : No

Text #1
ID                                       : 4
Format                                   : UTF-8
Codec ID                                 : S_TEXT/UTF8
Codec ID/Info                            : UTF-8 Plain Text
Duration                                 : 1 h 50 min
Bit rate                                 : 1 b/s
Count of elements                        : 50
Stream size                              : 1.10 KiB (0%)
Title                                    : Forced
Language                                 : English
Default                                  : No
Forced                                   : No

Text #2
ID                                       : 5
Format                                   : UTF-8
Codec ID                                 : S_TEXT/UTF8
Codec ID/Info                            : UTF-8 Plain Text
Duration                                 : 2 h 2 min
Bit rate                                 : 39 b/s
Count of elements                        : 1089
Stream size                              : 35.1 KiB (0%)
Title                                    : Full
Language                                 : English
Default                                  : No
Forced                                   : No

Text #3
ID                                       : 6
Format                                   : UTF-8
Codec ID                                 : S_TEXT/UTF8
Codec ID/Info                            : UTF-8 Plain Text
Duration                                 : 2 h 10 min
Bit rate                                 : 51 b/s
Count of elements                        : 1453
Stream size                              : 49.6 KiB (0%)
Title                                    : SDH
Language                                 : English
Default                                  : No
Forced                                   : No

Text #4
ID                                       : 7
Format                                   : UTF-8
Codec ID                                 : S_TEXT/UTF8
Codec ID/Info                            : UTF-8 Plain Text
Duration                                 : 2 h 10 min
Bit rate                                 : 67 b/s
Count of elements                        : 1548
Stream size                              : 64.8 KiB (0%)
Title                                    : SDH-Colored
Language                                 : English
Default                                  : No
Forced                                   : No

Menu
00:00:00.000                             : en:00:00:00.000
00:06:49.659                             : en:00:06:49.659
00:13:03.574                             : en:00:13:03.574
00:20:55.796                             : en:00:20:55.796
00:25:48.755                             : en:00:25:48.755
00:35:26.458                             : en:00:35:26.458
00:46:32.123                             : en:00:46:32.123
00:55:44.007                             : en:00:55:44.007
01:03:59.419                             : en:01:03:59.419
01:13:53.054                             : en:01:13:53.054
01:20:58.729                             : en:01:20:58.729
01:31:09.339                             : en:01:31:09.339
01:38:37.745                             : en:01:38:37.745
01:47:28.984                             : en:01:47:28.984
01:55:38.265                             : en:01:55:38.265
02:00:01.486                             : en:02:00:01.486
Світлини



2. Праведник 2 / The Equalizer 2 (2018) 1080p H.265 Ukr/Eng | Sub Ukr/Eng
Праведник 2 / The Equalizer 2 (2018) 1080p H.265 Ukr/Eng | Sub Ukr/Eng

Праведник. Диологія / The Equalizer. Diology (2014/2018) 1080p H.265 Ukr/Eng | Sub Eng


Жанр: бойовик, кримінальний, трилер
Країна: США
Кінокомпанія: Sony Pictures, Columbia Pictures, Village Roadshow Pictures
Режисер: Антуан Фукуа / Antoine Fuqua
Актори: Дензел Вашинґтон, Педро Паскаль, Ештон Сандерс, Мелісса Лео, Білл Пуллман, Джонатан Скарф, Сакіна Джеффрі, Орсон Бін, Казі Таугінас, Гарретт Голден та інші

Сюжет:
Головному герою фільму, колишньому агенту ЦРУ, Роберту Макколу подобалося вести розмірене життя пенсіонера. Але усьому свій час. Як тільки він зрозумів, що його знання і вміння можуть зробити світ кращим, він взявся за справу. У його послужному списку боротьба з російською мафією. Працюючи один, він зумів домогтися багато чого. Тож, мабуть, ще не час відпочивати.

Тривалість: 02:00:57
Якість:
Відео:
кодек: H.265 (HEVC)
розмір кадру: 1920 x 800
бітрейт: 4 750 кб/с
частота кадрів: 23.976 fps
біт піксель: 0.129 BPP (Bits Per Pixel)
бітова глибина: 10 біт
Увага! Перед завантаженням переконайтесь, що ваш пристрій відтворення (та/або ПЗ) підтримує H.265 (HEVC)


Аудіо # 1:
мова: українська
переклад: професійний дубльований | студія LeDoyen
кодек: AC-3 5.1
бітрейт: 640 кб/с

Аудіо # 2:
мова: англійська
переклад: оригінал
кодек: AC-3 5.1
бітрейт: 384 кб/с

Субтитри # 1:
мова: українська (Forced),
тип: програмні (м'які)
формат: *.srt

Субтитри # 2:
мова: українська (Full),
тип: програмні (м'які)
формат: *.srt

Субтитри # 3:
мова: англійська (Full),
тип: програмні (м'які)
формат: *.srt

Субтитри # 4:
мова: англійська (SDH),
тип: програмні (м'які)
формат: *.srt


Info
Код:
General
Unique ID                                : 48560839975935853345526320506468455407 (0x24887A42E8482C40DDE7AD9809F253EF)
Complete name                            : G:\Video\Films\Collection\The Equalizer. Diology (2014, 2018) 1080p H.265\2. The Equalizer 2 (2018) 1080p H.265 [UKR_ENG].
Format                                   :
Format version                           : Version 4 / Version 2
File size                                : 4.90 GiB
Duration                                 : 2 h 0 min
Overall bit rate                         : 5 794 kb/s
Movie name                               : The Equalizer 2 (2018)
Encoded date                             : UTC 2019-01-07 11:12:16
Writing application                      : v20.0.0 ('I Am The Sun') 32-bit
Writing library                          : libebml v1.3.5 + v1.4.8
Cover                                    : Yes
Attachments                              : cover

Video
ID                                       : 1
Format                                   : HEVC
Format/Info                              : High Efficiency Video Coding
Codec ID                                 : V_MPEGH/ISO/HEVC
Duration                                 : 2 h 0 min
Bit rate                                 : 4 750 kb/s
Width                                    : 1 920 pixels
Height                                   : 800 pixels
Display aspect ratio                     : 2.40:1
Frame rate mode                          : Constant
Frame rate                               : 23.976 (24000/1001) FPS
Color space                              : YUV
Chroma subsampling                       : 4:2:0
Bit depth                                : 10 bits
Bits/(Pixel*Frame)                       : 0.129
Stream size                              : 4.01 GiB (82%)
Title                                    : The Equalizer 2 (2018)
Writing library                          : x265 2.8+74-fd517ae68f93:[Windows][GCC 7.3.0][64 bit] 10bit
Encoding settings                        : cpuid=1111039 / frame-threads=13 / numa-pools=12 / wpp / no-pmode / no-pme / no-psnr / no-ssim / log-level=3 / input-csp=1 / input-res=1920x800 / interlace=0 / total-frames=0 / level-idc=41 / high-tier=1 / uhd-bd=0 / ref=7 / allow-non-conformance / no-repeat-headers / annexb / no-aud / no-hrd / info / hash=0 / no-temporal-layers / no-open-gop / min-keyint=24 / keyint=240 / gop-lookahead=0 / bframes=9 / b-adapt=2 / b-pyramid / bframe-bias=0 / rc-lookahead=40 / lookahead-slices=5 / scenecut=40 / radl=0 / no-intra-refresh / ctu=64 / min-cu-size=8 / rect / amp / max-tu-size=32 / tu-inter-depth=1 / tu-intra-depth=1 / limit-tu=0 / rdoq-level=0 / dynamic-rd=0.00 / no-ssim-rd / signhide / no-tskip / nr-intra=0 / nr-inter=0 / no-constrained-intra / no-strong-intra-smoothing / max-merge=2 / limit-refs=3 / no-limit-modes / me=3 / subme=7 / merange=57 / temporal-mvp / weightp / no-weightb / no-analyze-src-pics / deblock=-2:-2 / no-sao / no-sao-non-deblock / rd=3 / no-early-skip / rskip / no-fast-intra / no-tskip-fast / no-cu-lossless / no-b-intra / no-splitrd-skip / rdpenalty=0 / psy-rd=2.00 / psy-rdoq=0.00 / no-rd-refine / no-lossless / cbqpoffs=0 / crqpoffs=0 / rc=crf / crf=18.0 / qcomp=0.70 / qpstep=4 / stats-write=0 / stats-read=0 / vbv-maxrate=50000 / vbv-bufsize=50000 / vbv-init=0.9 / crf-max=0.0 / crf-min=0.0 / ipratio=1.40 / pbratio=1.30 / aq-mode=1 / aq-strength=1.00 / cutree / zone-count=0 / no-strict-cbr / qg-size=32 / no-rc-grain / qpmax=69 / qpmin=0 / no-const-vbv / sar=1 / overscan=0 / videoformat=5 / range=0 / colorprim=1 / transfer=1 / colormatrix=1 / chromaloc=0 / display-window=0 / max-cll=0,0 / min-luma=0 / max-luma=1023 / log2-max-poc-lsb=8 / vui-timing-info / vui-hrd-info / slices=1 / no-opt-qp-pps / no-opt-ref-list-length-pps / no-multi-pass-opt-rps / scenecut-bias=0.05 / no-opt-cu-delta-qp / no-aq-motion / no-hdr / no-hdr-opt / no-dhdr10-opt / no-idr-recovery-sei / analysis-reuse-level=5 / scale-factor=0 / refine-intra=0 / refine-inter=0 / refine-mv=0 / no-limit-sao / ctu-info=0 / no-lowpass-dct / refine-mv-type=0 / copy-pic=1 / max-ausize-factor=1.0 / no-dynamic-refine / no-single-sei
Language                                 : English
Default                                  : Yes
Forced                                   : No
Color range                              : Limited
Color primaries                          : BT.709
Transfer characteristics                 : BT.709
Matrix coefficients                      : BT.709

Audio #1
ID                                       : 2
Format                                   : AC-3
Format/Info                              : Audio Coding 3
Codec ID                                 : A_AC3
Duration                                 : 2 h 0 min
Bit rate mode                            : Constant
Bit rate                                 : 640 kb/s
Channel(s)                               : 6 channels
Channel positions                        : Front: L C R, Side: L R, LFE
Sampling rate                            : 48.0 kHz
Frame rate                               : 31.250 FPS (1536 SPF)
Bit depth                                : 16 bits
Compression mode                         : Lossy
Stream size                              : 554 MiB (11%)
Title                                    : ПД - Blu-Ray
Language                                 : Ukrainian
Service kind                             : Complete Main
Default                                  : Yes
Forced                                   : Yes

Audio #2
ID                                       : 3
Format                                   : AC-3
Format/Info                              : Audio Coding 3
Codec ID                                 : A_AC3
Duration                                 : 2 h 0 min
Bit rate mode                            : Constant
Bit rate                                 : 384 kb/s
Channel(s)                               : 6 channels
Channel positions                        : Front: L C R, Side: L R, LFE
Sampling rate                            : 48.0 kHz
Frame rate                               : 31.250 FPS (1536 SPF)
Bit depth                                : 16 bits
Compression mode                         : Lossy
Stream size                              : 332 MiB (7%)
Title                                    : Original
Language                                 : English
Service kind                             : Complete Main
Default                                  : No
Forced                                   : No

Text #1
ID                                       : 4
Format                                   : UTF-8
Codec ID                                 : S_TEXT/UTF8
Codec ID/Info                            : UTF-8 Plain Text
Duration                                 : 1 h 54 min
Bit rate                                 : 1 b/s
Count of elements                        : 29
Stream size                              : 1.01 KiB (0%)
Title                                    : Forced
Language                                 : Ukrainian
Default                                  : Yes
Forced                                   : Yes

Text #2
ID                                       : 5
Format                                   : UTF-8
Codec ID                                 : S_TEXT/UTF8
Codec ID/Info                            : UTF-8 Plain Text
Duration                                 : 1 h 59 min
Bit rate                                 : 55 b/s
Count of elements                        : 1058
Stream size                              : 48.7 KiB (0%)
Title                                    : Full
Language                                 : Ukrainian
Default                                  : No
Forced                                   : No

Text #3
ID                                       : 6
Format                                   : UTF-8
Codec ID                                 : S_TEXT/UTF8
Codec ID/Info                            : UTF-8 Plain Text
Duration                                 : 1 h 52 min
Bit rate                                 : 40 b/s
Count of elements                        : 1283
Stream size                              : 33.6 KiB (0%)
Title                                    : Full
Language                                 : English
Default                                  : No
Forced                                   : No

Text #4
ID                                       : 7
Format                                   : UTF-8
Codec ID                                 : S_TEXT/UTF8
Codec ID/Info                            : UTF-8 Plain Text
Duration                                 : 1 h 58 min
Bit rate                                 : 44 b/s
Count of elements                        : 1306
Stream size                              : 38.7 KiB (0%)
Title                                    : SDH
Language                                 : English
Default                                  : No
Forced                                   : No

Menu
00:00:00.000                             : :Chapter 1
00:06:50.034                             : :Chapter 2
00:13:22.635                             : :Chapter 3
00:16:43.460                             : :Chapter 4
00:27:10.920                             : :Chapter 5
00:34:05.459                             : :Chapter 6
00:41:05.546                             : :Chapter 7
00:47:08.617                             : :Chapter 8
00:54:17.337                             : :Chapter 9
01:02:17.817                             : :Chapter 10
01:11:18.732                             : :Chapter 11
01:18:39.130                             : :Chapter 12
01:25:19.947                             : :Chapter 13
01:31:40.244                             : :Chapter 14
01:40:10.337                             : :Chapter 15
01:52:14.727                             : :Chapter 16
Світлини




07.01.2019 - Замінив доріжку у другій частині на 5.1 з

Джерело:
Особиста оцінка: 10 - без зайвих вагань рекомендую всім!


>>> Усі мої релізи <<<



Бронзовий реліз (на рейтинг впливає 75% завантаженого)
 Трекер:    Зареєстрований   

Завантажити / скачати фільм українською



відео для новачків



 Зареєстрований:   2019-01-07 13:22
 Розмір:   10.5 GB 
 Оцінка фільму:   9.9/10 (Голосів: 18)
   
Ваш часовий пояс: GMT + 2 Години

Нова тема   Відповісти