Волл-стріт. Дилогія / Wall Street. Dilogy (1987/2010) 1080p H.265 Ukr/Eng | Sub Eng

Нові коментарі

Нова тема   Відповісти
Автор Повідомлення
Anonymous 







2018-11-30 23:40  
Волл-стріт. Дилогія / Wall Street. Dilogy (1987/2010) 1080p H.265 Ukr/Eng | Sub Eng

Волл-стріт. Дилогія / Wall Street. Dilogy (1987/2010) 1080p H.265 Ukr/Eng | Sub Eng

Кінокомпанія: Twentieth Century Fox Film Corporation, Edward R. Pressman Film, Dune Entertainment, American Entertainment Partners L.P., Amercent Films
Жанр: кримінальний, драма
Режисер: Олівер Стоун
Країна: США

1. 2.

1. Волл-стріт / Wall Street (1987) 1080p H.265 2xUkr/Eng | Sub Eng
Волл-стріт / Wall Street (1987) 1080p H.265 2xUkr/Eng | Sub Eng

Волл-стріт. Дилогія / Wall Street. Dilogy (1987/2010) 1080p H.265 Ukr/Eng | Sub Eng

Актори: Чарлі Шин, Майкл Дуґлас, Деріл Ханна, Мартін Шин, Тамара Тюні, Франклін Ковер, Чак Пфайфер, Джон К. Маꥳнлі, Гел Голбрук, Джеймс Карен, Леслі Лайлс

Сюжет:
Бад Фокс, молодий і гранично амбітний брокер, живе в серці світу, де у всього, що завгодно, є своя ціна, все можна купити і продати. Він твердо має намір досягти вершин, стати кращим. Прагнучи отримати підтримку, він добивається знайомства із старим хижаком Ґордоном Ґекко, і той відкриває йому таємниці майстерності. Швидкі гроші, розкішні жінки, всі задоволення світу в руках Бада, а вируючі довкола фінансові потоки несуть ще більше грошей, більше розкоші, більше можливостей, більше спокус. Потрібно лише наздогнати цю здобич. Потрібно забути про все, окрім головного закону: «Жадібність - це добре. Це - працює!»

Тривалість: 02:05:43
Якість:
Відео:
кодек: H.265 (HEVC)
розмір кадру: 1920 х 1024
бітрейт: 9 969 кб/с
бітова глибина: 10 біт
Увага! Перед завантаженням переконайтесь, що ваш пристрій відтворення (та/або ПЗ) підтримує H.265 (HEVC)

Аудіо # 1:
мова: українська
переклад: багатоголосий закадровий
кодек: 2.0
бітрейт: 192 кб/с

Аудіо # 2:
мова: українська
переклад: двоголосий закадровий
кодек: 2.0
бітрейт: 192 кб/с

Аудіо # 3:
мова: англійська
переклад: оригінал
кодек: 5.1
бітрейт: 384 кб/с

Субтитри # 1:
мова: українська (Forced - на місця без озвучення (для Доріжки #2)),
тип: програмні (м'які)
формат: *.srt

Субтитри # 2:
мова: англійська (Full),
тип: програмні (м'які)
формат: *.srt


Info
Код:
General
Unique ID                                : 71495342831980980805286194971743227954 (0x35C9808DD92EBE7C612B414E01361032)
Complete name                            : G:\Video\Films\Collection\Wall Street. Diology (1987-2010) 1080p H.265\1. Wall Street (1987) [RM] 1080p H.265 [2xUKR_ENG].
Format                                   :
Format version                           : Version 4 / Version 2
File size                                : 9.43 GiB
Duration                                 : 2 h 5 min
Overall bit rate                         : 10.7 Mb/s
Movie name                               : Wall Street [Remastered] (1987)
Encoded date                             : UTC 2018-11-30 13:50:43
Writing application                      : v20.0.0 ('I Am The Sun') 32-bit
Writing library                          : libebml v1.3.5 + v1.4.8
Cover                                    : Yes
Attachments                              : Cover.jpg

Video
ID                                       : 1
Format                                   : HEVC
Format/Info                              : High Efficiency Video Coding
Format profile                           : Main [email protected]@High
Codec ID                                 : V_MPEGH/ISO/HEVC
Duration                                 : 2 h 5 min
Bit rate                                 : 9 969 kb/s
Width                                    : 1 920 pixels
Height                                   : 1 024 pixels
Display aspect ratio                     : 1.85:1
Frame rate mode                          : Constant
Frame rate                               : 23.976 (24000/1001) FPS
Color space                              : YUV
Chroma subsampling                       : 4:2:0
Bit depth                                : 10 bits
Bits/(Pixel*Frame)                       : 0.211
Stream size                              : 8.75 GiB (93%)
Default                                  : Yes
Forced                                   : No

Audio #1
ID                                       : 2
Format                                   : AC-3
Format/Info                              : Audio Coding 3
Codec ID                                 : A_AC3
Duration                                 : 2 h 5 min
Bit rate mode                            : Constant
Bit rate                                 : 192 kb/s
Channel(s)                               : 2 channels
Channel positions                        : Front: L R
Sampling rate                            : 48.0 kHz
Frame rate                               : 31.250 FPS (1536 SPF)
Bit depth                                : 16 bits
Compression mode                         : Lossy
Stream size                              : 173 MiB (2%)
Title                                    : БЗ - Kino
Language                                 : Ukrainian
Service kind                             : Complete Main
Default                                  : Yes
Forced                                   : No

Audio #2
ID                                       : 3
Format                                   : AC-3
Format/Info                              : Audio Coding 3
Codec ID                                 : A_AC3
Duration                                 : 2 h 5 min
Bit rate mode                            : Constant
Bit rate                                 : 192 kb/s
Channel(s)                               : 2 channels
Channel positions                        : Front: L R
Sampling rate                            : 48.0 kHz
Frame rate                               : 31.250 FPS (1536 SPF)
Bit depth                                : 16 bits
Compression mode                         : Lossy
Stream size                              : 173 MiB (2%)
Title                                    : ДЗ - 2+2
Language                                 : Ukrainian
Service kind                             : Complete Main
Default                                  : No
Forced                                   : No

Audio #3
ID                                       : 4
Format                                   : AC-3
Format/Info                              : Audio Coding 3
Codec ID                                 : A_AC3
Duration                                 : 2 h 5 min
Bit rate mode                            : Constant
Bit rate                                 : 384 kb/s
Channel(s)                               : 6 channels
Channel positions                        : Front: L C R, Side: L R, LFE
Sampling rate                            : 48.0 kHz
Frame rate                               : 31.250 FPS (1536 SPF)
Bit depth                                : 16 bits
Compression mode                         : Lossy
Stream size                              : 345 MiB (4%)
Title                                    : Original
Language                                 : English
Service kind                             : Complete Main
Default                                  : No
Forced                                   : No

Text #1
ID                                       : 5
Format                                   : UTF-8
Codec ID                                 : S_TEXT/UTF8
Codec ID/Info                            : UTF-8 Plain Text
Duration                                 : 1 h 28 min
Bit rate                                 : 1 b/s
Count of elements                        : 13
Stream size                              : 932 Bytes (0%)
Title                                    : Forced
Language                                 : Ukrainian
Default                                  : Yes
Forced                                   : No

Text #2
ID                                       : 6
Format                                   : UTF-8
Codec ID                                 : S_TEXT/UTF8
Codec ID/Info                            : UTF-8 Plain Text
Duration                                 : 2 h 5 min
Bit rate                                 : 87 b/s
Count of elements                        : 1778
Stream size                              : 79.7 KiB (0%)
Title                                    : Full
Language                                 : English
Default                                  : No
Forced                                   : No

Menu
00:00:00.000                             : en:00:00:00.000
00:04:26.016                             : en:00:04:26.016
00:09:04.544                             : en:00:09:04.544
00:13:22.218                             : en:00:13:22.218
00:23:20.899                             : en:00:23:20.899
00:26:19.620                             : en:00:26:19.620
00:28:40.052                             : en:00:28:40.052
00:33:27.130                             : en:00:33:27.130
00:37:06.307                             : en:00:37:06.307
00:40:42.106                             : en:00:40:42.106
00:44:05.726                             : en:00:44:05.726
00:52:41.867                             : en:00:52:41.867
00:56:45.235                             : en:00:56:45.235
00:59:49.002                             : en:00:59:49.002
01:05:00.563                             : en:01:05:00.563
01:07:14.489                             : en:01:07:14.489
01:13:18.436                             : en:01:13:18.436
01:19:43.988                             : en:01:19:43.988
01:22:11.760                             : en:01:22:11.760
01:30:31.176                             : en:01:30:31.176
01:32:16.990                             : en:01:32:16.990
01:34:19.737                             : en:01:34:19.737
01:38:26.526                             : en:01:38:26.526
01:42:47.119                             : en:01:42:47.119
01:45:26.195                             : en:01:45:26.195
01:47:00.164                             : en:01:47:00.164
01:53:07.239                             : en:01:53:07.239
01:59:06.890                             : en:01:59:06.890
Світлини



2. Волл-стріт: Гроші не сплять / Wall Street: Money Never Sleeps (2010) 1080p H.265 Ukr/Eng | Sub Ukr/Eng
Волл-стріт: Гроші не сплять / Wall Street: Money Never Sleeps (2010) 1080p H.265 Ukr/Eng | Sub Ukr/Eng

Волл-стріт. Дилогія / Wall Street. Dilogy (1987/2010) 1080p H.265 Ukr/Eng | Sub Eng

Актори: Майкл Дуглас, Шиа ЛаБеф, Чарлі Шин, Джош Бролін, Френк Ланджела, Кері Малліґан, Сьюзен Сарандон

Сюжет:
Ґордон Ґекко виходить з в'язниці і, не втрачаючи часу дарма, починає новий шлях до панування у фінансовому світі, який за час його відсидки став ще більш неспокійним і сумбурним. І тепер ніхто не повинен встати у Гордона на шляху.

Тривалість: 02:12:58
Якість:
Відео:
кодек: H.265 (HEVC)
розмір кадру: 1920 х 816
бітрейт: 9 919 кб/с
бітова глибина: 10 біт
Увага! Перед завантаженням переконайтесь, що ваш пристрій відтворення (та/або ПЗ) підтримує H.265 (HEVC)

Аудіо # 1:
мова: українська
переклад: професійний дубльований
кодек: 5.1
бітрейт: 448 кб/с

Аудіо # 2:
мова: англійська
переклад: оригінал
кодек: 5.1
бітрейт: 1 509 кб/с

Субтитри # 1-2:
мова: українська (Forced, Full)
тип: програмні (м'які)
формат: *.srt

Субтитри # 3:
мова: англійська (Full)
тип: програмні (м'які)
формат: *.srt


Info
Код:
General
Unique ID                                : 207186216204461730528635861545463550800 (0x9BDE9D2107A6AECC203D1AC8C72F9350)
Complete name                            : G:\Video\Films\Collection\Wall Street. Diology (1987-2010) 1080p H.265\2. Wall Street - Money Never Sleeps (2010) 1080p H.265 [UKR_ENG].
Format                                   :
Format version                           : Version 4 / Version 2
File size                                : 11.0 GiB
Duration                                 : 2 h 12 min
Overall bit rate                         : 11.9 Mb/s
Movie name                               : Wall Street: Money Never Sleeps (2010)
Encoded date                             : UTC 2018-11-30 14:24:48
Writing application                      : v20.0.0 ('I Am The Sun') 32-bit
Writing library                          : libebml v1.3.5 + v1.4.8
Cover                                    : Yes
Attachments                              : Cover.jpg

Video
ID                                       : 1
Format                                   : HEVC
Format/Info                              : High Efficiency Video Coding
Format profile                           : Main [email protected]@High
Codec ID                                 : V_MPEGH/ISO/HEVC
Duration                                 : 2 h 12 min
Bit rate                                 : 9 919 kb/s
Width                                    : 1 920 pixels
Height                                   : 816 pixels
Display aspect ratio                     : 2.35:1
Frame rate mode                          : Constant
Frame rate                               : 23.976 (24000/1001) FPS
Color space                              : YUV
Chroma subsampling                       : 4:2:0
Bit depth                                : 10 bits
Bits/(Pixel*Frame)                       : 0.264
Stream size                              : 9.21 GiB (83%)
Title                                    : Wall Street: Money Never Sleeps (2010)
Default                                  : Yes
Forced                                   : No

Audio #1
ID                                       : 2
Format                                   : AC-3
Format/Info                              : Audio Coding 3
Codec ID                                 : A_AC3
Duration                                 : 2 h 12 min
Bit rate mode                            : Constant
Bit rate                                 : 448 kb/s
Channel(s)                               : 6 channels
Channel positions                        : Front: L C R, Side: L R, LFE
Sampling rate                            : 48.0 kHz
Frame rate                               : 31.250 FPS (1536 SPF)
Bit depth                                : 16 bits
Compression mode                         : Lossy
Stream size                              : 426 MiB (4%)
Title                                    : ПД - Blu-Ray
Language                                 : Ukrainian
Service kind                             : Complete Main
Default                                  : Yes
Forced                                   : No

Audio #2
ID                                       : 3
Format                                   :
Format/Info                              : Digital Theater Systems
Codec ID                                 : A_DTS
Duration                                 : 2 h 12 min
Bit rate mode                            : Constant
Bit rate                                 : 1 509 kb/s
Channel(s)                               : 6 channels
Channel positions                        : Front: L C R, Side: L R, LFE
Sampling rate                            : 48.0 kHz
Frame rate                               : 93.750 FPS (512 SPF)
Bit depth                                : 24 bits
Compression mode                         : Lossy
Stream size                              : 1.40 GiB (13%)
Title                                    : Original
Language                                 : English
Default                                  : No
Forced                                   : No

Text #1
ID                                       : 4
Format                                   : UTF-8
Codec ID                                 : S_TEXT/UTF8
Codec ID/Info                            : UTF-8 Plain Text
Duration                                 : 1 h 52 min
Bit rate                                 : 0 b/s
Count of elements                        : 12
Stream size                              : 593 Bytes (0%)
Title                                    : Forced
Language                                 : Ukrainian
Default                                  : Yes
Forced                                   : Yes

Text #2
ID                                       : 5
Format                                   : UTF-8
Codec ID                                 : S_TEXT/UTF8
Codec ID/Info                            : UTF-8 Plain Text
Duration                                 : 2 h 6 min
Bit rate                                 : 112 b/s
Count of elements                        : 1919
Stream size                              : 105 KiB (0%)
Title                                    : Full
Language                                 : Ukrainian
Default                                  : No
Forced                                   : No

Text #3
ID                                       : 6
Format                                   : UTF-8
Codec ID                                 : S_TEXT/UTF8
Codec ID/Info                            : UTF-8 Plain Text
Duration                                 : 2 h 12 min
Bit rate                                 : 85 b/s
Count of elements                        : 2289
Stream size                              : 82.4 KiB (0%)
Title                                    : Full
Language                                 : English
Default                                  : No
Forced                                   : No

Menu
00:00:00.000                             : en:00:00:00.000
00:08:27.966                             : en:00:08:27.966
00:13:15.503                             : en:00:13:15.503
00:16:05.089                             : en:00:16:05.089
00:20:39.280                             : en:00:20:39.280
00:25:41.457                             : en:00:25:41.457
00:29:45.075                             : en:00:29:45.075
00:35:02.392                             : en:00:35:02.392
00:40:23.880                             : en:00:40:23.880
00:44:59.363                             : en:00:44:59.363
00:49:21.584                             : en:00:49:21.584
00:54:27.973                             : en:00:54:27.973
01:00:36.091                             : en:01:00:36.091
01:03:48.241                             : en:01:03:48.241
01:09:46.641                             : en:01:09:46.641
01:16:28.667                             : en:01:16:28.667
01:21:08.155                             : en:01:21:08.155
01:25:18.405                             : en:01:25:18.405
01:27:36.543                             : en:01:27:36.543
01:32:49.481                             : en:01:32:49.481
01:37:42.356                             : en:01:37:42.356
01:41:27.790                             : en:01:41:27.790
01:45:14.934                             : en:01:45:14.934
01:48:07.815                             : en:01:48:07.815
01:53:44.026                             : en:01:53:44.026
01:58:49.164                             : en:01:58:49.164
02:01:39.918                             : en:02:01:39.918
02:06:31.209                             : en:02:06:31.209
Скріншоти




Джерело:
Особиста оцінка: 10 - без зайвих вагань рекомендую всім!


>>> Усі мої релізи <<<



Срібний реліз (на рейтинг впливає 50% завантаженого)
 Трекер:    Зареєстрований   

Завантажити / скачати фільм українською



відео для новачків



 Зареєстрований:   2018-11-30 23:40
 Розмір:   20.46 GB 
 Оцінка фільму:   9.7/10 (Голосів: 3)
   
-VJ- 
VIP


З нами з: 01.11.09
Востаннє: 16.12.19
Повідомлень: 724

2019-03-19 15:12  
Сідерів більше не буде?
Anonymous 







2019-03-19 22:16  
-VJ-
Надіюся, що будуть. Хотілося б викачати назад цю дилогію.

-VJ- 
VIP


З нами з: 01.11.09
Востаннє: 16.12.19
Повідомлень: 724

2019-05-07 13:00  
-Star-Lord-
А мені би просто скачати...
Та схоже доведеться ліпити самому.

Ваш часовий пояс: GMT + 2 Години

Нова тема   Відповісти