Дефективи (Сезон 1-2) (2017-2018) 1080p

Нові коментарі

Нова тема   Відповісти
немає
Автор Повідомлення
dima_2004 
Свій


З нами з: 30.05.16
Востаннє: 16.01.19
Повідомлень: 83

2018-11-29 20:50  
Дефективи (Сезон 1-2) (2017-2018) 1080p

Дефективи (Сезон 1-2) (2017-2018) 1080p


Жанр: детектив, комедія, сімейний
Країна: Україна

Кінокомпанія: НЛО-ТБ
Режисер: Олександр Богданенко
Актори: Дмитро Соловйов, Фелікс Аброскін, Катерина Буцька, Геннадій Василенко

Сюжет:
За сюжетом, Тайсон (Дмитро Соловйов) і Цезар (Фелікс Аброскін), які встигли побувати рестораторами, відкривають новий бізнес. Через власну дурість, даруйте, дивний збіг обставин хлопці створюють детективне агентство і беруться за справу! Точніше, за цілком різні справи, які їм підкидає доля, і за які непогано платять! Тайсон і Цезар, так до кінця не розібравшись, хто з них Шерлок Холмс, а хто — доктор Ватсон, ідуть на все заради прибутку. Їм допомагають спадкова мольфарка Адель (Катерина Буцька), а також винахідник і суперхакер Валєра (Геннадій Василенко).


Тривалість: 1 серія: 26 хв. (цілком серій: 30+30)
Перелік серій
1 сезон
1 серія - 30 серія
2 сезон
1 серія - 30 серія
Якість:
Відео:
кодек:
розмір кадру: 1920 х 1080
бітрейт: 1000-2000 кб/с

Аудіо:
мова: українська
переклад: оригінал
кодек: 2.0
бітрейт: 128 кб/с
MI
General
Complete name : D:\DIMA\FILMS\Defektivi.Web.1080\Defektivi.S02.Web.1080\S02E13.mp4
Format : MPEG-4
Format profile : Base Media
Codec ID : isom
File size : 242 MiB
Duration : 27mn 48s
Overall bit rate : 1 216 Kbps
Writing application : Lavf57.2.100

Video
ID : 1
Format : AVC
Format/Info : Advanced Video Codec
Format profile : [email protected]
Format settings, CABAC : Yes
Format settings, ReFrames : 3 frames
Codec ID : avc1
Codec ID/Info : Advanced Video Coding
Duration : 27mn 48s
Bit rate : 1 081 Kbps
Width : 1 920 pixels
Height : 1 080 pixels
Display aspect ratio : 16:9
Frame rate mode : Constant
Frame rate : 25.000 fps
Color space : YUV
Chroma subsampling : 4:2:0
Bit depth : 8 bits
Scan type : Progressive
Bits/(Pixel*Frame) : 0.021
Stream size : 215 MiB (89%)
Color range : Limited
Color primaries : BT.709
Transfer characteristics : BT.709
Matrix coefficients : BT.709

Audio
ID : 2
Format :
Format/Info : Advanced Audio Codec
Format profile : LC
Codec ID : 40
Duration : 27mn 48s
Bit rate mode : Constant
Bit rate : 128 Kbps
Channel(s) : 2 channels
Channel positions : Front: L R
Sampling rate : 44.1 KHz
Compression mode : Lossy
Stream size : 25.5 MiB (11%)
Language : Russian
Скріншоти










Особиста оцінка: 10 - без зайвих вагань рекомендую всім!
bot 
робот


З нами з: 30.09.07
Востаннє: 26.05.05
Повідомлень: 20536

2018-12-01 13:13  
Тему перенесено з Телесеріали до форуму Анонси релізів


Givi
Givi 
Модератор відео


З нами з: 25.02.08
Востаннє: 22.01.19
Повідомлень: 2927

2018-12-01 13:18  
Переніс тему до анонсів, доробляйте.
І ще цікавить питання чому не роздається перший сезон, і чи не простіше буде додати другий сезон у ту тему й стати на роздачу? Подумайте над цим, даю вам два дні, після чого смітник.
Ваш часовий пояс: GMT + 2 Години

Нова тема   Відповісти