Чарівні чудові / This Beautiful Fantastic (2016) AVC Ukr/Eng

Нові коментарі

Нова тема   Відповісти
Автор Повідомлення
staf777 
Відео Гуртом - підтримка та поширення
Відео Гуртом - підтримка та поширення


З нами з: 16.11.16
Востаннє: 23.04.19
Повідомлень: 2285

2018-11-29 00:27  
Чарівні чудові / This Beautiful Fantastic (2016) AVC Ukr/Eng

Чарівні чудові / This Beautiful Fantastic (2016) AVC Ukr/Eng


Жанр: фентезі, драма, мелодрама, комедія
Країна: Велика Британія, США



Кінокомпанія: Ipso Facto Productions, Smudge Films, Constance Media, Head Gear Films, Kreo Films FZ
Режисер: Саймон Ебауд / Simon Aboud
Актори: Джессіка Браун Фіндлі / Jessica Brown Findlay, Том Вілкінсон / Tom Wilkinson, Ендрю Скотт / Andrew Scott, Джеремі Ірвін / Jeremy Irvine, Анна Чанселлор / Anna Chancellor, Ейлін Дейвіс / Eileen Davies, Шейла Хенкок / Sheila Hancock, Шарлотта Еспрі / Charlotte Asprey, Пол Блеквелл / Paul Blackwell, Лола Султан / Lola Sultan та інші

Сюжет:
Іще маленькою Беллу Браун батьки покинули просто серед Гайд Парку. Через це у неї розвинулася агорафобія й паралізуючий страх перед дикою природою. Однак Белла не втрачає любові до життя – у неї є талант і мрія стати дитячою письменницею. Коли перед героїнею постає дилема – привести до ладу занедбаний сад або бути виселеною з помешкання, – вона знаходить розраду в особі сварливого й неприязного заможного дідугана, який живе по сусідству і несподівано виявляється чудовим садівником.


Тривалість: 01:31:33
Якість: AVC
Відео:
кодек:
розмір кадру: 1024x428
бітрейт: 1865 кб/с

Аудіо # 1:
мова: українська
переклад: багатоголосий закадровий | кінотеатральне озвучення на замовлення Артхаус Трафік
кодек: 2.0 [стерео]
бітрейт: 192 кб/с

Аудіо # 2:
мова: англійська
переклад: оригінал
кодек: 5.1
бітрейт: 384 кб/с
Info
General
Unique ID : 147540658728202189416154618484576197806 (0x6EFF4C199EA77F037421C3CBF17F9CAE)
Complete name : N:\Фільми AVC\Фентезі\This Beautiful Fantastic (2016) AVC [UKR][ENG][Hurtom].
Format :
Format version : Version 4 / Version 2
File size : 1.56 GiB
Duration : 1 h 31 min
Overall bit rate : 2 442 kb/s
Movie name : This Beautiful Fantastic (2016) AVC [UKR][ENG][Hurtom]
Encoded date : UTC 2018-11-28 21:40:19
Writing application : v24.0.0 ('Beyond The Pale') 64-bit
Writing library : libebml v1.3.6 + v1.4.9
Cover : Yes
Attachments : cover.jpg

Video
ID : 1
Format : AVC
Format/Info : Advanced Video Codec
Format profile : [email protected]
Format settings : CABAC / 10 Ref Frames
Format settings, CABAC : Yes
Format settings, ReFrames : 10 frames
Codec ID : V_MPEG4/ISO/AVC
Duration : 1 h 31 min
Bit rate : 1 865 kb/s
Width : 1 024 pixels
Height : 428 pixels
Display aspect ratio : 2.40:1
Frame rate mode : Constant
Frame rate : 24.000 FPS
Color space : YUV
Chroma subsampling : 4:2:0
Bit depth : 8 bits
Scan type : Progressive
Bits/(Pixel*Frame) : 0.177
Stream size : 1.19 GiB (76%)
Writing library : core 146 r2538 121396c
Encoding settings : cabac=1 / ref=10 / deblock=1:-3:-3 / analyse=0x3:0x133 / me=umh / subme=11 / psy=1 / psy_rd=1.00:0.07 / mixed_ref=1 / me_range=48 / chroma_me=1 / trellis=2 / 8x8dct=1 / cqm=0 / deadzone=21,11 / fast_pskip=0 / chroma_qp_offset=-3 / threads=6 / lookahead_threads=1 / sliced_threads=0 / nr=0 / decimate=0 / interlaced=0 / bluray_compat=0 / constrained_intra=0 / bframes=10 / b_pyramid=2 / b_adapt=2 / b_bias=0 / direct=3 / weightb=1 / open_gop=0 / weightp=2 / keyint=240 / keyint_min=24 / scenecut=40 / intra_refresh=0 / rc_lookahead=40 / rc=2pass / mbtree=0 / bitrate=1865 / ratetol=1.0 / qcomp=0.60 / qpmin=0 / qpmax=69 / qpstep=4 / cplxblur=20.0 / qblur=0.5 / vbv_maxrate=50000 / vbv_bufsize=62500 / nal_hrd=none / filler=0 / ip_ratio=1.40 / pb_ratio=1.30 / aq=1:1.00
Language : English
Default : Yes
Forced : No

Audio #1
ID : 2
Format : AC-3
Format/Info : Audio Coding 3
Codec ID : A_AC3
Duration : 1 h 31 min
Bit rate mode : Constant
Bit rate : 192 kb/s
Channel(s) : 2 channels
Channel positions : Front: L R
Sampling rate : 48.0 kHz
Frame rate : 31.250 FPS (1536 SPF)
Bit depth : 16 bits
Compression mode : Lossy
Stream size : 126 MiB (8%)
Title : [UKR-MVO]
Language : Ukrainian
Service kind : Complete Main
Default : Yes
Forced : Yes

Audio #2
ID : 3
Format : AC-3
Format/Info : Audio Coding 3
Codec ID : A_AC3
Duration : 1 h 31 min
Bit rate mode : Constant
Bit rate : 384 kb/s
Channel(s) : 6 channels
Channel positions : Front: L C R, Side: L R, LFE
Sampling rate : 48.0 kHz
Frame rate : 31.250 FPS (1536 SPF)
Bit depth : 16 bits
Compression mode : Lossy
Stream size : 251 MiB (16%)
Language : English
Service kind : Complete Main
Default : No
Forced : No

Menu
00:00:00.000 : en:1
00:06:18.375 : en:2
00:12:24.166 : en:3
00:18:36.499 : en:4
00:24:51.665 : en:5
00:30:51.498 : en:6
00:35:54.664 : en:7
00:40:56.164 : en:8
00:47:35.497 : en:9
00:54:14.205 : en:10
00:58:51.788 : en:11
01:04:52.663 : en:12
01:09:22.038 : en:13
01:16:02.954 : en:14
01:23:22.662 : en:15
Скріншоти





Подяка п.Bohdan237 за запис, синхронізацію та пану igor911 за допомогу в створені реліза.
Джерело: &
Особиста оцінка: 8 - мені сподобалося
Чарівні чудові / This Beautiful Fantastic (2016) AVC Ukr/Eng Чарівні чудові / This Beautiful Fantastic (2016) AVC Ukr/Eng


 Трекер:    Зареєстрований   

Завантажити / скачати фільм українською



відео для новачків



 Зареєстрований:   2018-11-29 00:49
 Розмір:   1.56 GB 
 Оцінка фільму:   8.3/10 (Голосів: 15)
   
Інші релізи
Bezverh 
Свій


З нами з: 04.09.18
Востаннє: 01.01.19
Повідомлень: 50

2018-12-03 00:55  
кіно для дівчат.
ivertoloka 
Новенький


З нами з: 03.02.17
Востаннє: 08.04.19
Повідомлень: 7

2019-01-30 03:21  
Милий. Яскравий. Добрий фільм-сон...
TeronUA 
VIP


З нами з: 13.02.09
Востаннє: 23.04.19
Повідомлень: 334

2019-01-30 21:37  
Не поганий фільм.)
mzl 
Свій


З нами з: 19.12.15
Востаннє: 04.04.19
Повідомлень: 67

2019-01-31 13:49  
Надзвичайний фільм! Теплий і добрий.Акторський склад підібрано просто геніально. Позитивні враження на цілий день, дякую.10
Ваш часовий пояс: GMT + 2 Години

Нова тема   Відповісти