Місіс Вілсон (Сезон 1, серії 1-2) / Mrs. Wilson (Season 1, episodes 1-2) (2018)

Нові коментарі

Нова тема   Відповісти
Автор Повідомлення
DniproFilm 
Свій


З нами з: 10.10.18
Востаннє: 11.12.18
Повідомлень: 147

2018-11-28 16:37  
Місіс Вілсон (Сезон 1, серії 1-2) / Mrs. Wilson (Season 1, episodes 1-2) (2018)

Місіс Вілсон (Сезон 1, серії 1-2) / Mrs. Wilson (Season 1, episodes 1-2) (2018)


Жанр: драма, детектив, біографія
Країна:Великобританія


Кінокомпанія / телеканал: Snowed-In Productions, BBC One, Masterpiece

Режисер: Річард Лектон
Актори/ролі озвучують: Ієн Глен, Кілі Хоуз, Анупам Кхер, Калум Лінч, Фіона Шоу, Рут Вілсон, Отто Фарант, Патрік Кеннеді та інші

Сюжет:
1940-1960 роки, Лондон. Елісон Вілсон - звичайна жінка, дружина письменника-фантаста Алека Вілсона. В одну мить її життя кардинально змінюється, коли раптово помирає її чоловік: на порозі дому Елісон з'являється невідома, яка стверджує, що це вона справжня місіс Вілсон. Потім виявляється, що Алек був геть не письменником, а секретним агентом. Шукаючи правди про чоловіка, Елісон все більше зануюється у вир світу таємниць...


Тривалість: 1 серія: ~ 60 хв. (цілком серій: 3)
Перелік серій

1. Episode 1
2. Episode 2
3. Episode 3
Якість:
Відео:
кодек:
розмір кадру: 720x300
бітрейт: ~1500 кб/с

Аудіо # 1:
мова: українська
переклад: багатоголосий закадровий
кодек: 5.1
бітрейт: 384 кб/с

Джерело озвучення:
DniproFilm
Info

Video
ID : 0
Format : MPEG-4 Visual
Format profile : Advanced [email protected]
Format settings : BVOP2
Format settings, BVOP : 2
Format settings, QPel : No
Format settings, GMC : No warppoints
Format settings, Matrix : Default (H.263)
Muxing mode : Packed bitstream
Codec ID :
Codec ID/Hint :
Duration : 57 min 16 s
Bit rate : 1 522 kb/s
Width : 720 pixels
Height : 300 pixels
Display aspect ratio : 2.40:1
Frame rate : 25.000 FPS
Color space : YUV
Chroma subsampling : 4:2:0
Bit depth : 8 bits
Scan type : Progressive
Compression mode : Lossy
Bits/(Pixel*Frame) : 0.282
Stream size : 623 MiB (79%)
Writing library : 67

Audio
ID : 1
Format : AC-3
Format/Info : Audio Coding 3
Commercial name : Dolby Digital
Codec ID : 2000
Duration : 57 min 16 s
Bit rate mode : Constant
Bit rate : 384 kb/s
Channel(s) : 6 channels
Channel positions : Front: L C R, Side: L R, LFE
Sampling rate : 48.0 kHz
Frame rate : 31.250 FPS (1536 SPF)
Bit depth : 16 bits
Compression mode : Lossy
Stream size : 157 MiB (20%)
Alignment : Aligned on interleaves
Interleave, duration : 40 ms (1.00 video frame)
Interleave, preload duratio : 512 ms
Service kind : Complete Main
Скріншоти

Увага, присутня відео та аудіореклама.

Додано 2 серію.


Джерело: DniproFilm


Авторський реліз (завантажувати можна без реєстрації)
 Трекер:    Зареєстрований   

Завантажити / скачати серіал українською



відео для новачків



 Зареєстрований:   2018-12-05 14:25
 Розмір:   1.57 GB 
 Оцінка серіалу:   9.8/10 (Голосів: 5)
   
krabapka 
Частий відвідувач


З нами з: 15.08.15
Востаннє: 10.12.18
Повідомлень: 26

2018-11-30 19:39  
Цікаво. З задоволенням подивлюся далі.
Barilo 
Частий відвідувач


З нами з: 22.05.11
Востаннє: 09.12.18
Повідомлень: 26

2018-12-02 18:04  
Перша серія сподобалась. Чекаю продовження. Нарешті щось не про копів, вампірів чи зомбі
Shamus123 
Новенький


З нами з: 12.04.14
Востаннє: 10.12.18
Повідомлень: 2

2018-12-02 22:52  
Толково. Чекаю продовження
DniproFilm 
Свій


З нами з: 10.10.18
Востаннє: 11.12.18
Повідомлень: 147

2018-12-05 14:27  
УВАГА! РЕЛІЗ ОНОВЛЕНО! (05.12.2018) Додано 2 серію.

Ваш часовий пояс: GMT + 2 Години

Нова тема   Відповісти