Місіс Вілсон (Сезон 1, серії 1-2) / Mrs. Wilson (Season 1, episodes 1-2) (2018) 1080p Ukr/Eng

Нові коментарі

Нова тема   Відповісти
Автор Повідомлення
DniproFilm 
Свій


З нами з: 10.10.18
Востаннє: 11.12.18
Повідомлень: 147

2018-11-28 16:36  
Місіс Вілсон (Сезон 1, серії 1-2) / Mrs. Wilson (Season 1, episodes 1-2) (2018) 1080p Ukr/Eng

Місіс Вілсон (Сезон 1, серії 1-2) / Mrs. Wilson (Season 1, episodes 1-2) (2018) 1080p Ukr/Eng


Жанр: драма, детектив, біографія
Країна:Великобританія


Кінокомпанія / телеканал: Snowed-In Productions, BBC One, Masterpiece

Режисер: Річард Лектон
Актори/ролі озвучують: Ієн Глен, Кілі Хоуз, Анупам Кхер, Калум Лінч, Фіона Шоу, Рут Вілсон, Отто Фарант, Патрік Кеннеді та інші

Сюжет:
1940-1960 роки, Лондон. Елісон Вілсон - звичайна жінка, дружина письменника-фантаста Алека Вілсона. В одну мить її життя кардинально змінюється, коли раптово помирає її чоловік: на порозі дому Елісон з'являється невідома, яка стверджує, що це вона справжня місіс Вілсон. Потім виявляється, що Алек був геть не письменником, а секретним агентом. Шукаючи правди про чоловіка, Елісон все більше зануюється у вир світу таємниць...


Тривалість: 1 серія: ~ 60 хв. (цілком серій: 3)
Перелік серій

1. Episode 1
2. Episode 2
3. Episode 3
Якість:
Відео:
кодек:
розмір кадру: 1920x800
бітрейт: ~7000 кб/с

Аудіо # 1:
мова: українська
переклад: багатоголосий закадровий
кодек: 5.1
бітрейт: 384 кб/с

Аудіо # 2:
мова: англійська
переклад: оригінал
кодек: 5.1
бітрейт: 640 кб/с

Джерело озвучення:
DniproFilm
Info

Video
ID : 1
Format : AVC
Format/Info : Advanced Video Codec
Format profile : [email protected]
Format settings : CABAC / 4 Ref Frames
Format settings, CABAC : Yes
Format settings, ReFrames : 4 frames
Codec ID : V_MPEG4/ISO/AVC
Duration : 57 min 16 s
Bit rate : 6 884 kb/s
Width : 1 920 pixels
Height : 800 pixels
Display aspect ratio : 2.40:1
Frame rate mode : Constant
Frame rate : 25.000 FPS
Standard : PAL
Color space : YUV
Chroma subsampling : 4:2:0
Bit depth : 8 bits
Scan type : Progressive
Bits/(Pixel*Frame) : 0.179
Stream size : 2.75 GiB (87%)
Language : English
Default : Yes
Forced : No
Color range : Limited
Color primaries : BT.709
Transfer characteristics : BT.709
Matrix coefficients : BT.709

Audio #1
ID : 2
Format : AC-3
Format/Info : Audio Coding 3
Commercial name : Dolby Digital
Codec ID : A_AC3
Duration : 57 min 16 s
Bit rate mode : Constant
Bit rate : 384 kb/s
Channel(s) : 6 channels
Channel positions : Front: L C R, Side: L R, LFE
Sampling rate : 48.0 kHz
Frame rate : 31.250 FPS (1536 SPF)
Bit depth : 16 bits
Compression mode : Lossy
Stream size : 157 MiB (5%)
Title : DniproFilm
Language : Ukrainian
Service kind : Complete Main
Default : Yes
Forced : No

Audio #2
ID : 3
Format : AC-3
Format/Info : Audio Coding 3
Codec ID : A_AC3
Duration : 56 min 45 s
Bit rate : 640 kb/s
Channel(s) : 6 channels
Sampling rate : 48.0 kHz
Frame rate : 31.250 FPS (1536 SPF)
Compression mode : Lossy
Stream size : 260 MiB (8%)
Language : English
Default : No
Forced : No
Скріншоти

Увага, присутня відео та аудіореклама.

Додано 2 серію.


Джерело: DniproFilm


Авторський реліз (завантажувати можна без реєстрації)
 Трекер:    Зареєстрований   

Завантажити / скачати серіал українською



відео для новачків



 Зареєстрований:   2018-12-05 14:25
 Розмір:   6.31 GB 
 Оцінка серіалу:   10/10 (Голосів: 2)
   
DniproFilm 
Свій


З нами з: 10.10.18
Востаннє: 11.12.18
Повідомлень: 147

2018-12-05 14:27  
УВАГА! РЕЛІЗ ОНОВЛЕНО! (05.12.2018) Додано 2 серію.

Ваш часовий пояс: GMT + 2 Години

Нова тема   Відповісти