Метелик / Papillon (2017) 1080p H.265 Ukr/Eng | Sub Eng

Нові коментарі

Нова тема   Відповісти
Автор Повідомлення
Anonymous 







2018-11-28 00:19  
Метелик / Papillon (2017) 1080p H.265 Ukr/Eng | Sub Eng

Метелик / Papillon (2017) 1080p H.265 Ukr/Eng | Sub Eng


Жанр: кримінал, драма, детектив, трилер
Країна: США, Іспанія, Чехія
Кінокомпанія: CCzech Anglo Productions, FishCorb Films, Red Granite Pictures
Режисер: Міхаель Ноер
Актори: Чарлі Ганнем, Рамі Малек, Ів Х'юсон, Роланд Мюллер, Томмі Фленаґан, Ніна Сенікар, Крістофер Фейрбенк, Аттіла Арпа, Славко Собін, Деметрі Горіцас та інші

Сюжет:
У 1931 році Анрі Шарьєра безпідставно звинувачують у вбивстві та ув’язнюють у одну з найсуворіших тюрем тогочасного світу. Кожен день перебування у неволі Анрі присвятив розробці плану втечі. За час ув’язнення він здійснив дев’ять спроб вибратися на волю. Зрештою йому таки вдалося втекти завдяки союзу з фальшивомонетником Луї Дега. Це сталося в 1941 році.

Тривалість: 02:13:14
Якість:
Відео:
кодек: H.265 (HEVC)
розмір кадру: 1920 x 804
бітрейт: 6 238 кб/с
частота кадрів: 23.976 fps
біт піксель: 0.169 BPP (Bits Per Pixel)
бітова глибина: 10 біт
Увага! Перед завантаженням переконайтесь, що ваш пристрій відтворення (та/або ПЗ) підтримує H.265 (HEVC)

Аудіо # 1:
мова: українська
переклад: професійний дубльований | студія AAA-Sound
кодек: AC-3 2.0
бітрейт: 192 кб/с

Аудіо # 2:
мова: англійська
переклад: оригінал
кодек: AC-3 5.1
бітрейт: 448 кб/с

Субтитри # 1:
мова: англійська (Full),
тип: програмні (м'які)
формат: *.srt

Субтитри # 2:
мова: англійська (SDH),
тип: програмні (м'які)
формат: *.srt


Info
Код:
General
Unique ID                                : 33595268541988414689782040429932393900 (0x1946369F40357014371A2D7CD90135AC)
Complete name                            : G:\Video\Films\Papillon (2017) 1080p H.265 [UKR_ENG].
Format                                   :
Format version                           : Version 4 / Version 2
File size                                : 6.40 GiB
Duration                                 : 2 h 13 min
Overall bit rate                         : 6 881 kb/s
Movie name                               : Papillon (2017)
Encoded date                             : UTC 2018-11-27 20:51:31
Writing application                      : v20.0.0 ('I Am The Sun') 32-bit
Writing library                          : libebml v1.3.5 + v1.4.8
Cover                                    : Yes
Attachments                              : cover.jpg

Video
ID                                       : 1
Format                                   : HEVC
Format/Info                              : High Efficiency Video Coding
Codec ID                                 : V_MPEGH/ISO/HEVC
Duration                                 : 2 h 13 min
Bit rate                                 : 6 238 kb/s
Width                                    : 1 920 pixels
Height                                   : 804 pixels
Display aspect ratio                     : 2.40:1
Frame rate mode                          : Constant
Frame rate                               : 23.976 (24000/1001) FPS
Color space                              : YUV
Chroma subsampling                       : 4:2:0
Bit depth                                : 10 bits
Bits/(Pixel*Frame)                       : 0.169
Stream size                              : 5.81 GiB (91%)
Title                                    : Papillon (2017)
Writing library                          : x265 2.8+74-fd517ae68f93:[Windows][GCC 7.3.0][64 bit] 10bit
Encoding settings                        : cpuid=1111039 / frame-threads=13 / numa-pools=12 / wpp / no-pmode / no-pme / no-psnr / no-ssim / log-level=3 / input-csp=1 / input-res=1920x804 / interlace=0 / total-frames=0 / level-idc=41 / high-tier=1 / uhd-bd=0 / ref=7 / allow-non-conformance / no-repeat-headers / annexb / no-aud / no-hrd / info / hash=0 / no-temporal-layers / no-open-gop / min-keyint=24 / keyint=240 / gop-lookahead=0 / bframes=9 / b-adapt=2 / b-pyramid / bframe-bias=0 / rc-lookahead=40 / lookahead-slices=5 / scenecut=40 / radl=0 / no-intra-refresh / ctu=64 / min-cu-size=8 / rect / amp / max-tu-size=32 / tu-inter-depth=1 / tu-intra-depth=1 / limit-tu=0 / rdoq-level=0 / dynamic-rd=0.00 / no-ssim-rd / signhide / no-tskip / nr-intra=0 / nr-inter=0 / no-constrained-intra / no-strong-intra-smoothing / max-merge=2 / limit-refs=3 / no-limit-modes / me=3 / subme=7 / merange=57 / temporal-mvp / weightp / no-weightb / no-analyze-src-pics / deblock=-2:-2 / no-sao / no-sao-non-deblock / rd=3 / no-early-skip / rskip / no-fast-intra / no-tskip-fast / no-cu-lossless / no-b-intra / no-splitrd-skip / rdpenalty=0 / psy-rd=2.00 / psy-rdoq=0.00 / no-rd-refine / no-lossless / cbqpoffs=0 / crqpoffs=0 / rc=crf / crf=19.0 / qcomp=0.60 / qpstep=4 / stats-write=0 / stats-read=0 / vbv-maxrate=50000 / vbv-bufsize=50000 / vbv-init=0.9 / crf-max=0.0 / crf-min=0.0 / ipratio=1.40 / pbratio=1.30 / aq-mode=1 / aq-strength=1.00 / cutree / zone-count=0 / no-strict-cbr / qg-size=32 / no-rc-grain / qpmax=69 / qpmin=0 / no-const-vbv / sar=1 / overscan=0 / videoformat=5 / range=0 / colorprim=1 / transfer=1 / colormatrix=1 / chromaloc=0 / display-window=0 / max-cll=0,0 / min-luma=0 / max-luma=1023 / log2-max-poc-lsb=8 / vui-timing-info / vui-hrd-info / slices=1 / no-opt-qp-pps / no-opt-ref-list-length-pps / no-multi-pass-opt-rps / scenecut-bias=0.05 / no-opt-cu-delta-qp / no-aq-motion / no-hdr / no-hdr-opt / no-dhdr10-opt / no-idr-recovery-sei / analysis-reuse-level=5 / scale-factor=0 / refine-intra=0 / refine-inter=0 / refine-mv=0 / no-limit-sao / ctu-info=0 / no-lowpass-dct / refine-mv-type=0 / copy-pic=1 / max-ausize-factor=1.0 / no-dynamic-refine / no-single-sei
Language                                 : English
Default                                  : Yes
Forced                                   : No
Color range                              : Limited
Color primaries                          : BT.709
Transfer characteristics                 : BT.709
Matrix coefficients                      : BT.709

Audio #1
ID                                       : 2
Format                                   : AC-3
Format/Info                              : Audio Coding 3
Codec ID                                 : A_AC3
Duration                                 : 2 h 13 min
Bit rate mode                            : Constant
Bit rate                                 : 192 kb/s
Channel(s)                               : 2 channels
Channel positions                        : Front: L R
Sampling rate                            : 48.0 kHz
Frame rate                               : 31.250 FPS (1536 SPF)
Bit depth                                : 16 bits
Compression mode                         : Lossy
Stream size                              : 183 MiB (3%)
Title                                    : ПД - Dub [AAASound], 2.0 [stereo] 192 Kbps
Language                                 : Ukrainian
Service kind                             : Complete Main
Default                                  : Yes
Forced                                   : Yes

Audio #2
ID                                       : 3
Format                                   : AC-3
Format/Info                              : Audio Coding 3
Codec ID                                 : A_AC3
Duration                                 : 2 h 13 min
Bit rate mode                            : Constant
Bit rate                                 : 448 kb/s
Channel(s)                               : 6 channels
Channel positions                        : Front: L C R, Side: L R, LFE
Sampling rate                            : 48.0 kHz
Frame rate                               : 31.250 FPS (1536 SPF)
Bit depth                                : 16 bits
Compression mode                         : Lossy
Stream size                              : 427 MiB (7%)
Title                                    : Original, 5.1 448 kbps
Language                                 : English
Service kind                             : Complete Main
Default                                  : No
Forced                                   : No

Text #1
ID                                       : 4
Format                                   : UTF-8
Codec ID                                 : S_TEXT/UTF8
Codec ID/Info                            : UTF-8 Plain Text
Duration                                 : 2 h 1 min
Bit rate                                 : 28 b/s
Count of elements                        : 974
Stream size                              : 25.6 KiB (0%)
Title                                    : Full
Language                                 : English
Default                                  : No
Forced                                   : No

Text #2
ID                                       : 5
Format                                   : UTF-8
Codec ID                                 : S_TEXT/UTF8
Codec ID/Info                            : UTF-8 Plain Text
Duration                                 : 2 h 12 min
Bit rate                                 : 32 b/s
Count of elements                        : 1223
Stream size                              : 31.2 KiB (0%)
Title                                    : SDH
Language                                 : English
Default                                  : No
Forced                                   : No

Menu
00:00:00.000                             : :Chapter 01
00:08:16.621                             : :Chapter 02
00:16:47.589                             : :Chapter 03
00:21:25.909                             : :Chapter 04
00:26:31.965                             : :Chapter 05
00:30:39.796                             : :Chapter 06
00:34:10.798                             : :Chapter 07
00:44:51.146                             : :Chapter 08
00:52:54.588                             : :Chapter 09
00:59:03.665                             : :Chapter 10
01:04:12.890                             : :Chapter 11
01:12:18.334                             : :Chapter 12
01:20:35.372                             : :Chapter 13
01:24:08.418                             : :Chapter 14
01:35:19.547                             : :Chapter 15
01:40:53.047                             : :Chapter 16
01:47:10.882                             : :Chapter 17
01:57:03.016                             : :Chapter 18
02:02:58.913                             : :Chapter 19
02:05:57.550                             : :Chapter 20
Світлини




Джерело:
Особиста оцінка: 0 - не дивився


>>> Усі мої релізи <<<



 Трекер:    Зареєстрований   

Завантажити / скачати фільм українською



відео для новачків



 Зареєстрований:   2018-11-28 00:19
 Розмір:   6.4 GB 
 Оцінка фільму:   9/10 (Голосів: 16)
   
Інші релізи
   Метелик / Papillon (2017) Remux 1080p Ukr/Eng | Sub Eng staf777  2 / 0   33.79 GB   2018-12-01 13:33 
   Метелик / Papillon (2017) AVC Ukr/Eng | Sub Eng 11FrYkT  45 / 0   2.75 GB   2018-11-27 19:05 
   Метелик / Papillon (2017) 1080p Ukr/Eng | Sub Eng staf777  8 / 0   11.23 GB   2018-11-27 01:23 
   Метелик / Papillon (2017) 720p Ukr/Eng | Sub Eng staf777  12 / 0   6.2 GB   2018-11-27 00:48 
   Метелик / Papillon (2017) Electroz  7 / 0   1.46 GB   2018-11-26 23:52 
Quq 
Новенький


З нами з: 06.06.16
Востаннє: 21.09.20
Повідомлень: 10

2018-12-07 20:14  
дякую, дуже гарний фільм
fatum69 
Частий відвідувач


З нами з: 10.12.16
Востаннє: 29.09.20
Повідомлень: 44

2019-08-19 23:54  
Хороший фільм, цікава історія
Ваш часовий пояс: GMT + 2 Години

Нова тема   Відповісти