Межа ризику / Margin Call (2011) 1080p H.265 Ukr/Eng | Sub Eng

Нові коментарі

Нова тема   Відповісти
Автор Повідомлення
-Star-Lord- 
VIP


З нами з: 09.08.18
Востаннє: 26.05.19
Повідомлень: 785

2018-11-27 23:37  
Межа ризику / Margin Call (2011) 1080p H.265 Ukr/Eng | Sub Eng

Межа ризику / Margin Call (2011) 1080p H.265 Ukr/Eng | Sub Eng


Жанр: драма, трилер
Країна: США
Кінокомпанія: Before The Door Pictures, Benaroya Pictures, Washington Square Films, Untitled Entertainment
Режисер: Джей Сі Чандор / J.C. Chandor
Актори: Кевін Спейсі / Kevin Spacey, Пол Беттані / Paul Bettany, Джеремі Айронс / Jeremy Irons, Закарі Квінто / Zachary Quinto, Пенн Бадґлей / Penn Badgley, Саймон Бейкер / Simon Baker, Мері Макдоннелл / Mary McDonnell, Демі Мур / Demi Moore, Стенлі Туччі / Stanley Tucci, Аасіф Мандві / Aasif Mandvi, Ешлі Вільямс / Ashley Williams, Сюзен Блаквелл / Susan Blackwell, Марія Діззіа / Maria Dizzia, Джиммі Палумбо / Jimmy Palumbo, Ал Сапєнза / Al Sapienza

Сюжет:
Вересень 2008 року. Світова економічна криза вже почалася, але Америка ще не знає, яка катастрофа чекає попереду, і тільки група топ-менеджерів на Уолл-Стріт шукає рецепт порятунку. Це були найстрашніші години в їх житті...

Співробітник одного з найбільших інвестиційних банків Lehman Brothers за допомогою новітньої програми ринкового аналізу отримує приголомшливий прогноз - акції впадуть, ринок обвалиться, банк втратить все. Вранці наступного дня він потрапляє під скорочення і перед тим, як піти передає флешку з небезпечною інформацією своєму колишньому помічнику. До вечора кращі аналітики банку, перевіривши ці обчислення, усвідомили жахливу перспективу: крах неминучий. Тепер вони стоять перед вибором: почати швидке скидання акцій, що залишить і великих акціонерів у всьому світі, і мільйони рядових вкладників ні з чим - або чекати розвитку подій, що загрожує втратою взагалі всього. Вирішувати треба тут і зараз. На кону - величезні гроші і майбутнє кожного. У цю ніч у ризика немає межі...


Тривалість: 01:47:03
Якість:
Відео:
кодек: H.265 (HEVC)
розмір кадру: 1920 x 1080
бітрейт: 2 956 кб/с
частота кадрів: 23.976 fps
біт піксель: 0.059 BPP (Bits Per Pixel)
бітова глибина: 10 біт
Увага! Перед завантаженням переконайтесь, що ваш пристрій відтворення (та/або ПЗ) підтримує H.265 (HEVC)

Аудіо # 1:
мова: українська
переклад: багатоголосий закадровий
кодек: AC-3 2.0
бітрейт: 192 кб/с

Аудіо # 2:
мова: англійська
переклад: оригінал
кодек: AC-3 5.1
бітрейт: 448 кб/с

Субтитри # 1:
мова: англійська (Full),
тип: програмні (м'які)
формат: *.srt


Info
Код:
General
Unique ID                                : 98238988378048581177517813904645545335 (0x49E82414CC67FDF834E4DB41736BDD77)
Complete name                            : G:\Video\Films\Collection\Margin Call (2011) 1080p H.265 [UKR_ENG].
Format                                   :
Format version                           : Version 4 / Version 2
File size                                : 2.69 GiB
Duration                                 : 1 h 47 min
Overall bit rate                         : 3 598 kb/s
Movie name                               : Margin Call (2011)
Encoded date                             : UTC 2018-11-27 18:53:34
Writing application                      : v20.0.0 ('I Am The Sun') 32-bit
Writing library                          : libebml v1.3.5 + v1.4.8
Cover                                    : Yes
Attachments                              : Cover.jpg

Video
ID                                       : 1
Format                                   : HEVC
Format/Info                              : High Efficiency Video Coding
Format profile                           : Main [email protected]@Main
Codec ID                                 : V_MPEGH/ISO/HEVC
Duration                                 : 1 h 47 min
Bit rate                                 : 2 956 kb/s
Width                                    : 1 920 pixels
Height                                   : 1 080 pixels
Display aspect ratio                     : 16:9
Frame rate mode                          : Constant
Frame rate                               : 23.976 (24000/1001) FPS
Color space                              : YUV
Chroma subsampling                       : 4:2:0
Bit depth                                : 10 bits
Bits/(Pixel*Frame)                       : 0.059
Stream size                              : 2.21 GiB (82%)
Title                                    : Margin Call (2011)
Writing library                          : x265 2.1+69-c97c64ab8b8e:[Windows][GCC 6.2.0][64 bit] 10bit
Encoding settings                        : cpuid=1173503 / frame-threads=2 / numa-pools=4 / wpp / no-pmode / no-pme / no-psnr / no-ssim / log-level=2 / input-csp=1 / input-res=1920x1080 / interlace=0 / total-frames=154010 / level-idc=0 / high-tier=1 / uhd-bd=0 / ref=4 / no-allow-non-conformance / no-repeat-headers / annexb / no-aud / no-hrd / info / hash=0 / no-temporal-layers / open-gop / min-keyint=23 / keyint=250 / bframes=4 / b-adapt=2 / b-pyramid / bframe-bias=0 / rc-lookahead=25 / lookahead-slices=4 / scenecut=40 / no-intra-refresh / ctu=64 / min-cu-size=8 / rect / no-amp / max-tu-size=32 / tu-inter-depth=1 / tu-intra-depth=1 / limit-tu=0 / rdoq-level=2 / signhide / no-tskip / nr-intra=0 / nr-inter=0 / no-constrained-intra / strong-intra-smoothing / max-merge=3 / limit-refs=3 / limit-modes / me=3 / subme=3 / merange=57 / temporal-mvp / weightp / no-weightb / no-analyze-src-pics / deblock=0:0 / sao / no-sao-non-deblock / rd=4 / no-early-skip / rskip / no-fast-intra / no-tskip-fast / no-cu-lossless / no-b-intra / rdpenalty=0 / psy-rd=2.00 / psy-rdoq=1.00 / no-rd-refine / analysis-mode=0 / no-lossless / cbqpoffs=0 / crqpoffs=0 / rc=crf / crf=18.0 / qcomp=0.60 / qpstep=4 / stats-write=0 / stats-read=0 / ipratio=1.40 / pbratio=1.30 / aq-mode=1 / aq-strength=1.00 / cutree / zone-count=0 / no-strict-cbr / qg-size=32 / no-rc-grain / qpmax=69 / qpmin=0 / sar=0 / overscan=0 / videoformat=5 / range=0 / colorprim=2 / transfer=2 / colormatrix=2 / chromaloc=0 / display-window=0 / max-cll=0,0 / min-luma=0 / max-luma=1023 / log2-max-poc-lsb=8 / vui-timing-info / vui-hrd-info / slices=1 / opt-qp-pps / opt-ref-list-length-pps / no-multi-pass-opt-rps / scenecut-bias=0.05
Default                                  : Yes
Forced                                   : No

Audio #1
ID                                       : 2
Format                                   : AC-3
Format/Info                              : Audio Coding 3
Codec ID                                 : A_AC3
Duration                                 : 1 h 47 min
Bit rate mode                            : Constant
Bit rate                                 : 192 kb/s
Channel(s)                               : 2 channels
Channel positions                        : Front: L R
Sampling rate                            : 48.0 kHz
Frame rate                               : 31.250 FPS (1536 SPF)
Bit depth                                : 16 bits
Compression mode                         : Lossy
Stream size                              : 147 MiB (5%)
Title                                    : БЗ - Воля кіно
Language                                 : Ukrainian
Service kind                             : Complete Main
Default                                  : Yes
Forced                                   : No

Audio #2
ID                                       : 3
Format                                   : AC-3
Format/Info                              : Audio Coding 3
Codec ID                                 : A_AC3
Duration                                 : 1 h 47 min
Bit rate mode                            : Constant
Bit rate                                 : 448 kb/s
Channel(s)                               : 6 channels
Channel positions                        : Front: L C R, Side: L R, LFE
Sampling rate                            : 48.0 kHz
Frame rate                               : 31.250 FPS (1536 SPF)
Bit depth                                : 16 bits
Compression mode                         : Lossy
Stream size                              : 343 MiB (12%)
Title                                    : Original
Language                                 : English
Service kind                             : Complete Main
Default                                  : No
Forced                                   : No

Text
ID                                       : 4
Format                                   : UTF-8
Codec ID                                 : S_TEXT/UTF8
Codec ID/Info                            : UTF-8 Plain Text
Duration                                 : 1 h 40 min
Bit rate                                 : 62 b/s
Count of elements                        : 1353
Stream size                              : 46.0 KiB (0%)
Title                                    : Full
Language                                 : English
Default                                  : Yes
Forced                                   : No

Menu
00:00:00.000                             : en:Chapter 01
00:07:13.766                             : en:Chapter 02
00:14:48.804                             : en:Chapter 03
00:20:25.807                             : en:Chapter 04
00:26:10.235                             : en:Chapter 05
00:32:03.171                             : en:Chapter 06
00:39:11.807                             : en:Chapter 07
00:45:57.254                             : en:Chapter 08
00:55:45.300                             : en:Chapter 09
01:02:24.240                             : en:Chapter 10
01:06:10.758                             : en:Chapter 11
01:13:54.012                             : en:Chapter 12
01:21:03.316                             : en:Chapter 13
01:26:03.032                             : en:Chapter 14
01:32:59.073                             : en:Chapter 15
01:43:02.843                             : en:Chapter 16
Світлини




Джерело:
Особиста оцінка: 10 - без зайвих вагань рекомендую всім!


>>> Усі мої релізи <<<



 Трекер:    Зареєстрований   

Завантажити / скачати фільм українською



відео для новачків



 Зареєстрований:   2018-11-27 23:37
 Розмір:   2.69 GB 
 Оцінка фільму:   9.4/10 (Голосів: 5)
   
Ваш часовий пояс: GMT + 2 Години

Нова тема   Відповісти