Монк / Monk (Сезон 1,2 7 серій з 16) (2002-2003) 720p Ukr/Eng

Нові коментарі

Нова тема   Відповісти
Останній раз роздавалося Хлопчик-2 (2019-09-21)
Автор Повідомлення
sergiyko.5 
VIP


З нами з: 25.02.16
Востаннє: 21.09.19
Повідомлень: 2587

2018-11-27 20:11  
Монк / Monk (Сезон 1-2) (2002-2003) 720p Ukr/Eng

Монк / Monk (Сезон 1,2 7 серій з 16) (2002-2003) 720p Ukr/Eng

Жанр: детектив
Країна, телекомпанія: США, USA Network
Режисер: Рендал Зіск
Актори: Тоні Шалуб, Трейлор Говард, Тед Лівайн, Джейсон Грей-Стенфорд, Бітті Шрем та інші.

Сюжет: Едріан Монк був чудовим детективом, працюючи в поліції Сан-Франциско, поки його дружина Труді не загинула в машині від бомби, яка, на переконання Монка, призначалася йому. Смерть Труді викликає у нього нервовий розлад. Він іде з поліції і стає затворником, відмовляючись залишати свій будинок протягом трьох років. За допомогою медсестри Шарони Флемінг (Бітті Шрем), він стає здатним вийти на вулицю. Цей прорив дозволяє йому почати працювати як приватний детектив та консультанта відділу вбивств, незважаючи на велику кількість у нього обсесивно-компульсивних розладів, які значно посилилися після трагедії.

Про серіал: Монк (англ. Monk) — детективний серіал, створений Енді Брекманом з Тоні Шалубом у головній ролі. Також відомий під назвою «Дефективний детектив».

Показ почався в США 12 липня 2002 на каналі USA Network та завершився восьмим сезоном 4 грудня 2009 року.
В Україні серіал вийшов на екран на телеканалі К1.

Кожна серія - окрема детективна історія.



Тривалість: 43:56 серія (Загалом 13+7)
Якість:

Відео: кодек: розмір кадру: 1280 х 720 бітрейт: 4046 кб/с
Аудіо 1: мова: українська переклад: багатоголосий закадровий кодек: 2.0 бітрейт: 192 кб/с
Озвучення: Індиго ТБ
Аудіо 2: мова: англійська переклад: оригінал кодек: 2.0 бітрейт: 160 кб/с
Перелік серій
Сезон 1:
01 Mr. Monk and the Candidate: Part 1
02 Mr. Monk and the Candidate: Part 2
03 Mr. Monk and the Psychic
04 Mr. Monk Meets Dale the Whale
05 Mr. Monk Goes to the Carnival
06 Mr. Monk Goes to the Asylum
07 Mr. Monk and the Billionaire Mugger
08 Mr. Monk and the Other Woman
09 Mr. Monk and the Marathon Man
10 Mr. Monk Takes a Vacation
11 Mr. Monk and the Earthquake
12 Mr. Monk and the Red-Headed Stranger
13 Mr. Monk and the Airplane

Сезон 2:
01 Mr. Monk Goes Back to School
02 Mr. Monk Goes to Mexico
03 Mr. Monk Goes to the Ballgame
04 Mr. Monk Goes to the Circus
05 Mr. Monk and the Very, Very Old Man
06 Mr. Monk Goes to the Theater
07 Mr. Monk and the Sleeping Suspect
Про файл:
General
Unique ID : 227185455416365936696187635271757234109 (0xAAEA53C03470226EF934F3B7764C7FBD)
Complete name : G:\Torrents2\FILMS\Monk S01 720p \S01E03.Mr.Monk.and.the.Psychic.720p..
Format :
Format version : Version 4
File size : 1.35 GiB
Duration : 43 min 55 s
Overall bit rate : 4 399 kb/s
Movie name : Monk S01 720p by sergiyko
Encoded date : UTC 2018-11-28 18:29:22
Writing application : v28.1.0 ('Morning Child') 64-bit
Writing library : libebml v1.3.6 + v1.4.9

Video
ID : 1
Format : AVC
Format/Info : Advanced Video Codec
Format profile : [email protected]
Format settings : 2 Ref Frames
Format settings, CABAC : No
Format settings, ReFrames : 2 frames
Codec ID : V_MPEG4/ISO/AVC
Duration : 43 min 55 s
Bit rate : 4 046 kb/s
Width : 1 280 pixels
Height : 720 pixels
Display aspect ratio : 16:9
Frame rate mode : Constant
Frame rate : 23.976 (24000/1001) FPS
Color space : YUV
Chroma subsampling : 4:2:0
Bit depth : 8 bits
Scan type : Progressive
Bits/(Pixel*Frame) : 0.183
Stream size : 1.24 GiB (92%)
Title : S01E03.Mr.Monk.and.the.Psychic
Language : English
Default : Yes
Forced : No
Color range : Limited
Color primaries : BT.709
Transfer characteristics : BT.709
Matrix coefficients : BT.709

Audio #1
ID : 2
Format : AC-3
Format/Info : Audio Coding 3
Commercial name : Dolby Digital
Codec ID : A_AC3
Duration : 43 min 55 s
Bit rate mode : Constant
Bit rate : 192 kb/s
Channel(s) : 2 channels
Channel layout : L R
Sampling rate : 48.0 kHz
Frame rate : 31.250 FPS (1536 SPF)
Bit depth : 16 bits
Compression mode : Lossy
Stream size : 60.3 MiB (4%)
Title : MOV | Індиго
Language : Ukrainian
Service kind : Complete Main
Default : Yes
Forced : Yes

Audio #2
ID : 3
Format : LC
Format/Info : Advanced Audio Codec Low Complexity
Codec ID : A_AAC-2
Duration : 43 min 55 s
Bit rate : 159 kb/s
Channel(s) : 2 channels
Channel layout : L R
Sampling rate : 48.0 kHz
Frame rate : 46.875 FPS (1024 SPF)
Compression mode : Lossy
Stream size : 49.9 MiB (4%)
Title : Original
Language : English
Default : No
Forced : No
Скріншоти:



Автор запису,зведення: sergiyko


Срібний реліз (на рейтинг впливає 50% завантаженого)
 Трекер:    Зареєстрований   

Завантажити / скачати серіал українською



відео для новачків



 Зареєстрований:   2018-12-16 19:39
 Розмір:   26.76 GB 
 Оцінка серіалу:   9.9/10 (Голосів: 10)
   
bot 
робот


З нами з: 30.09.07
Востаннє: 26.05.05
Повідомлень: 22109

2018-11-27 20:11  
Тему перенесено з Серіали в HD до форуму Анонси релізів


sergiyko.5

S3M4RiL 
Поважний учасник


З нами з: 25.09.16
Востаннє: 19.09.19
Повідомлень: 220

2018-11-28 09:46  
Класний серіал. Нажаль, вже подивився в російській озвучці.
bot 
робот


З нами з: 30.09.07
Востаннє: 26.05.05
Повідомлень: 22109

2018-11-28 21:47  
Тему перенесено з Анонси релізів до форуму Серіали в HD


sergiyko.5

кокошнік 
Попереджень: 1
Попереджень: 1 


З нами з: 09.06.15
Востаннє: 17.09.19
Повідомлень: 1831

2018-11-28 22:48  
S3M4RiL написано:
Класний серіал. Нажаль, вже подивився в російській озвучці.

деякі люди кожного року дивляться одні і ті ж серіали, однією мовою,
змініть свої та їх принципи, подивіться іншою мовою,
як правило серіали досить таки відрізняються різними мовами, у озвучених слів навіть зміст різний...

taksist 
VIP


З нами з: 10.12.12
Востаннє: 21.09.19
Повідомлень: 263

2018-11-29 23:34  
хто дивився більш ніж одну серію - там теж дурнувата озвучка чи все нормально?
S3M4RiL 
Поважний учасник


З нами з: 25.09.16
Востаннє: 19.09.19
Повідомлень: 220

2018-12-06 21:45  
кокошнік написано:
як правило серіали досить таки відрізняються різними мовами, у озвучених слів навіть зміст різний...

Давно в першу чергу шукаю українською, а вже потім як вийде. Я рідко передивляюсь фільми, а серіали тим більше)

sergiyko.5 
VIP


З нами з: 25.02.16
Востаннє: 21.09.19
Повідомлень: 2587

2018-12-09 11:50  
Додав 1-7 серії другого сезону.
Cartwright 
Поважний учасник


З нами з: 23.03.13
Востаннє: 21.09.19
Повідомлень: 233

2018-12-16 14:52  
В 3 серії 1 сезону на 18:30 вмикається інша звукова доріжка.
sergiyko.5 
VIP


З нами з: 25.02.16
Востаннє: 21.09.19
Повідомлень: 2587

2018-12-16 19:39  
Cartwright
Виправив.

Ваш часовий пояс: GMT + 2 Години

Нова тема   Відповісти