Дикуни / Savages (2012) [Unrated version] 720p Ukr/Eng | Sub Eng

Нові коментарі

Нова тема   Відповісти
Автор Повідомлення
staf777 
Відео Гуртом - підтримка та поширення
Відео Гуртом - підтримка та поширення


З нами з: 16.11.16
Востаннє: 19.09.19
Повідомлень: 2877

2018-11-27 12:13  
Дикуни / Savages (2012) [Unrated version] 720p Ukr/Eng | Sub Eng

Дикуни / Savages (2012) [Unrated version] 720p Ukr/Eng | Sub Eng


Жанр: драма, кримінальний, триллер
Країна: США



Кінокомпанія: Ixtlan, Onda Entertainment, Relativity Media
Режисер: Олівер Стоун
Актори: Тейлор Кітч, Аарон Джонсон, Блейк Лайвлі, Сальма Хайек, Бенісіо Дель Торо, Джон Траволта, Еміль Хірш

Сюжет:
Починати будь-який бізнес важко, навіть коли не потрібно дотримуватися усіх державних чи злочинних законів. Цього не врахували двоє друзів, які взялися продавати наркотики власного виробництва. В результаті – викрадено найкращу подругу, а ціна за її звільнення – весь торішній заробіток. Але у них уже є досить амбітний план, який не передбачає дипломатичних переговорів.


Тривалість: 02:21:09
Якість: 720p

Відео:
кодек:
розмір кадру: 1280x534
бітрейт: 3988 кб/с

Аудіо #1:
мова: українська
переклад: багатоголосий закадровий
кодек: 2.0
бітрейт: 192 кб/с

Аудіо # 2:
мова: англійська
переклад: оригінал
кодек: 5.1
бітрейт: 448 кб/с

Субтитри:
мова: англійська
тип: програмні (м'які)
формат: *.srt





Info
Код:
General
Unique ID                   : 197604770285060316874069524842337877958 (0x94A94B5F68B4839703C7DB0E97853FC6)
Complete name               : G:\Savages (2012) [Unrated version] 720p [UKR][ENG][Hurtom].
Format                      :
Format version              : Version 4 / Version 2
File size                   : 4.57 GiB
Duration                    : 2 h 21 min
Overall bit rate            : 4 631 kb/s
Movie name                  : Savages (2012) [Unrated version] 720p [UKR][ENG][Hurtom]
Encoded date                : UTC 2018-11-27 09:30:56
Writing application         : v24.0.0 ('Beyond The Pale') 64-bit
Writing library             : libebml v1.3.6 + v1.4.9
Cover                       : Yes
Attachments                 : cover.jpg

Video
ID                          : 1
Format                      : AVC
Format/Info                 : Advanced Video Codec
Format profile              : [email protected]
Format settings             : CABAC / 9 Ref Frames
Format settings, CABAC      : Yes
Format settings, ReFrames   : 9 frames
Codec ID                    : V_MPEG4/ISO/AVC
Duration                    : 2 h 21 min
Bit rate                    : 3 988 kb/s
Width                       : 1 280 pixels
Height                      : 534 pixels
Display aspect ratio        : 2.40:1
Frame rate mode             : Constant
Frame rate                  : 23.976 (24000/1001) FPS
Color space                 : YUV
Chroma subsampling          : 4:2:0
Bit depth                   : 8 bits
Scan type                   : Progressive
Bits/(Pixel*Frame)          : 0.243
Stream size                 : 3.93 GiB (86%)
Writing library             : core 125 r2208 d9d2288
Encoding settings           : cabac=1 / ref=9 / deblock=1:-1:-1 / analyse=0x3:0x133 / me=umh / subme=11 / psy=1 / psy_rd=1.00:0.00 / mixed_ref=1 / me_range=32 / chroma_me=1 / trellis=2 / 8x8dct=1 / cqm=0 / deadzone=21,11 / fast_pskip=0 / chroma_qp_offset=-2 / threads=12 / lookahead_threads=2 / sliced_threads=0 / nr=0 / decimate=1 / interlaced=0 / bluray_compat=0 / constrained_intra=0 / bframes=8 / b_pyramid=2 / b_adapt=2 / b_bias=0 / direct=1 / weightb=1 / open_gop=0 / weightp=2 / keyint=250 / keyint_min=23 / scenecut=40 / intra_refresh=0 / rc=crf / mbtree=0 / crf=20.0 / qcomp=0.60 / qpmin=0 / qpmax=69 / qpstep=4 / ip_ratio=1.10 / pb_ratio=1.10 / aq=1:1.00
Language                    : English
Default                     : Yes
Forced                      : No

Audio #1
ID                          : 2
Format                      : AC-3
Format/Info                 : Audio Coding 3
Codec ID                    : A_AC3
Duration                    : 2 h 21 min
Bit rate mode               : Constant
Bit rate                    : 192 kb/s
Channel(s)                  : 2 channels
Channel positions           : Front: L R
Sampling rate               : 48.0 kHz
Frame rate                  : 31.250 FPS (1536 SPF)
Bit depth                   : 16 bits
Compression mode            : Lossy
Stream size                 : 194 MiB (4%)
Title                       : MVO [NLO], 2.0 192 Kbps
Language                    : Ukrainian
Service kind                : Complete Main
Default                     : Yes
Forced                      : Yes

Audio #2
ID                          : 3
Format                      : AC-3
Format/Info                 : Audio Coding 3
Codec ID                    : A_AC3
Duration                    : 2 h 21 min
Bit rate mode               : Constant
Bit rate                    : 448 kb/s
Channel(s)                  : 6 channels
Channel positions           : Front: L C R, Side: L R, LFE
Sampling rate               : 48.0 kHz
Frame rate                  : 31.250 FPS (1536 SPF)
Bit depth                   : 16 bits
Compression mode            : Lossy
Stream size                 : 452 MiB (10%)
Title                       : Original, 5.1 448 kbps
Language                    : English
Service kind                : Complete Main
Default                     : No
Forced                      : No

Text #1
ID                          : 4
Format                      : UTF-8
Codec ID                    : S_TEXT/UTF8
Codec ID/Info               : UTF-8 Plain Text
Duration                    : 2 h 15 min
Bit rate                    : 55 b/s
Count of elements           : 1834
Stream size                 : 55.4 KiB (0%)
Title                       : Full
Language                    : English
Default                     : No
Forced                      : No

Text #2
ID                          : 5
Format                      : UTF-8
Codec ID                    : S_TEXT/UTF8
Codec ID/Info               : UTF-8 Plain Text
Duration                    : 2 h 16 min
Bit rate                    : 59 b/s
Count of elements           : 1966
Stream size                 : 59.0 KiB (0%)
Title                       : SDH
Language                    : English
Default                     : No
Forced                      : No

Menu
00:00:00.000                : en:Chapter 00
00:06:42.152                : en:Chapter 01
00:13:40.737                : en:Chapter 02
00:20:58.215                : en:Chapter 03
00:24:36.934                : en:Chapter 04
00:31:40.899                : en:Chapter 05
00:41:50.257                : en:Chapter 06
00:48:33.869                : en:Chapter 07
00:57:19.519                : en:Chapter 08
01:02:04.554                : en:Chapter 09
01:11:21.819                : en:Chapter 10
01:19:53.747                : en:Chapter 11
01:28:03.236                : en:Chapter 12
01:36:29.867                : en:Chapter 13
01:43:49.849                : en:Chapter 14
01:48:41.348                : en:Chapter 15
01:56:37.032                : en:Chapter 16
02:02:58.496                : en:Chapter 17
02:11:47.024                : en:Chapter 18
02:16:49.910                : en:Chapter 19
Дикуни / Savages (2012) [Unrated version] 720p Ukr/Eng | Sub Eng Дикуни / Savages (2012) [Unrated version] 720p Ukr/Eng | Sub Eng

Подяка пану Neytreenor за запис з ТБ та пану Anonymous за синхронізацію.
Джерело: &
Особиста оцінка: 0 - не дивився


 Трекер:    Зареєстрований   

Завантажити / скачати фільм українською



відео для новачків



 Зареєстрований:   2018-11-27 13:31
 Розмір:   4.57 GB 
 Оцінка фільму:   8.2/10 (Голосів: 11)
   
Інші релізи
   Дикуни / Savages (2012) [Unrated version] AVC Ukr/Eng | Sub Eng 11FrYkT  4 / 0   3.16 GB   2018-11-27 08:35 
   Дикуни / Savages (2012) Ukr/Eng Gelios  2 / 0   2.18 GB   2016-12-27 07:33 
   Дикуни / Savages (2012) [Unrated version] Electroz  1 / 0   1.46 GB   2016-12-26 21:53 
   Дикуни [Театральна версія] / Savages [Theatrical version] (2012) | Mic legos25  0 / 0   1.99 GB   2013-05-15 15:03 
bot 
робот


З нами з: 30.09.07
Востаннє: 26.05.05
Повідомлень: 22077

2018-11-27 13:31  
Тему перенесено з Анонси релізів до форуму Фільми в HD


staf777

Ваш часовий пояс: GMT + 2 Години

Нова тема   Відповісти