Чорний пес / Black Dog (1998) 720p Ukr/Eng | Sub Eng

Нові коментарі

Нова тема   Відповісти
Автор Повідомлення
Anonymous 







2018-11-27 10:22  
Чорний пес / Black Dog (1998) 720p Ukr/Eng | Sub Eng

Чорний пес / Black Dog (1998) 720p Ukr/Eng | Sub Eng


Жанр: бойовик, драма, кримінальний
Країна: США, Велика Британія, Франція, Німеччина, Японія



Кінокомпанія: Prelude Pictures, Saltire Entertainment, Toho-Towa, Universal Pictures
Режисер: Кевін Хукс / Kevin Hooks
Актори: Патрік Свейзі, Міт Лоуф, Ренді Тревіс, Ґебріел Коссес, Браян Вінсент, Ґрем Беккел, Бренда Стронг, Расті Де Віз, Сіріл О'Райллі, Ерін Бродерік, Чарльз С. Даттон, Стівен Тоболовскі

Сюжет:
Водій-далекобійник Джек Круз щойно вийшов з в'язниці і знаходиться під поліцейським наглядом, але фінансові негаразди вимушують його погодитися на перевезення лівого вантажу. Без зайвих питань він вирушає в дорогу. Та скоро стає зрозуміло, наскільки небезпечним буде цей рейс, переслідуваний бандитами і ФБР, Джек твердо має намір доставити вантаж за призначенням.


Тривалість: 01:28:19
Якість: 720p
Відео:
кодек:
розмір кадру: 1280x544
бітрейт: 6332 кб/с

Аудіо # 1:
мова: українська
переклад: двоголосий закадровий
кодек: 2.0
бітрейт: 192 кб/с

Аудіо # 2:
мова: англійська
переклад: оригінал
кодек: 5.1
бітрейт: 640 кб/с

Субтитри:
мова: англійська
тип: програмні (м'які)
формат: *.srt
Info
General
Unique ID : 178614543059869590798674574926896130129 (0x865FE8E1FB4610F2B9095C04077F6851)
Format :
Format version : Version 4 / Version 2
File size : 4.51 GiB
Duration : 1 h 28 min
Overall bit rate : 7 310 kb/s
Movie name : Black Dog (1998)
Encoded date : UTC 2018-11-27 07:17:45
Writing application : v6.1.0 ('Old Devil') built on Mar 4 2013 09:10:42
Writing library : libebml v1.3.0 + v1.4.0

Video
ID : 1
Format : AVC
Format/Info : Advanced Video Codec
Format profile : [email protected]
Format settings : CABAC / 12 Ref Frames
Format settings, CABAC : Yes
Format settings, ReFrames : 12 frames
Codec ID : V_MPEG4/ISO/AVC
Duration : 1 h 28 min
Bit rate : 6 332 kb/s
Width : 1 280 pixels
Height : 544 pixels
Display aspect ratio : 2.35:1
Frame rate mode : Constant
Frame rate : 23.976 (24000/1001) FPS
Color space : YUV
Chroma subsampling : 4:2:0
Bit depth : 8 bits
Scan type : Progressive
Bits/(Pixel*Frame) : 0.379
Stream size : 3.91 GiB (87%)
Title : Black Dog (1998) 720p
Writing library : core 148 r2705kMod 3f5ed56
Encoding settings : cabac=1 / ref=12 / deblock=1:-3:-3 / analyse=0x3:0x133 / me=umh / subme=10 / psy=1 / fade_compensate=0.00 / psy_rd=1.00:0.00 / mixed_ref=1 / me_range=32 / chroma_me=1 / trellis=2 / 8x8dct=1 / cqm=0 / deadzone=21,11 / fast_pskip=0 / chroma_qp_offset=-2 / threads=6 / lookahead_threads=1 / sliced_threads=0 / nr=0 / decimate=0 / interlaced=0 / bluray_compat=0 / constrained_intra=0 / fgo=0 / bframes=10 / b_pyramid=2 / b_adapt=2 / b_bias=0 / direct=3 / weightb=1 / open_gop=0 / weightp=2 / keyint=250 / keyint_min=23 / scenecut=40 / intra_refresh=0 / rc_lookahead=60 / rc=crf / mbtree=0 / crf=17.0000 / qcomp=0.60 / qpmin=0 / qpmax=69 / qpstep=4 / vbv_maxrate=62500 / vbv_bufsize=78125 / crf_max=0.0 / nal_hrd=none / filler=0 / ip_ratio=1.40 / pb_ratio=1.30 / aq=3:0.85
Language : English
Default : Yes
Forced : No

Audio #1
ID : 2
Format : AC-3
Format/Info : Audio Coding 3
Codec ID : A_AC3
Duration : 1 h 28 min
Bit rate mode : Constant
Bit rate : 192 kb/s
Channel(s) : 2 channels
Channel positions : Front: L R
Sampling rate : 48.0 kHz
Frame rate : 31.250 FPS (1536 SPF)
Bit depth : 16 bits
Compression mode : Lossy
Stream size : 121 MiB (3%)
Title : UKR (2+2)
Language : Ukrainian
Service kind : Complete Main
Default : Yes
Forced : Yes

Audio #2
ID : 3
Format : AC-3
Format/Info : Audio Coding 3
Codec ID : A_AC3
Duration : 1 h 28 min
Bit rate mode : Constant
Bit rate : 640 kb/s
Channel(s) : 6 channels
Channel positions : Front: L C R, Side: L R, LFE
Sampling rate : 48.0 kHz
Frame rate : 31.250 FPS (1536 SPF)
Bit depth : 16 bits
Compression mode : Lossy
Stream size : 404 MiB (9%)
Language : English
Service kind : Complete Main
Default : No
Forced : No

Text
ID : 4
Format : UTF-8
Codec ID : S_TEXT/UTF8
Codec ID/Info : UTF-8 Plain Text
Title : SDH
Language : English
Default : No
Forced : No

Menu
00:00:00.000 : en:Chapter 1
00:05:04.303 : en:Chapter 2
00:09:33.823 : en:Chapter 3
00:12:38.507 : en:Chapter 4
00:13:42.988 : en:Chapter 5
00:19:01.723 : en:Chapter 6
00:21:15.773 : en:Chapter 7
00:24:21.417 : en:Chapter 8
00:27:27.729 : en:Chapter 9
00:28:40.844 : en:Chapter 10
00:32:27.904 : en:Chapter 11
00:35:11.692 : en:Chapter 12
00:41:24.773 : en:Chapter 13
00:45:15.254 : en:Chapter 14
00:49:46.191 : en:Chapter 15
00:52:11.795 : en:Chapter 16
00:55:12.767 : en:Chapter 17
01:00:26.581 : en:Chapter 18
01:03:42.193 : en:Chapter 19
01:06:01.457 : en:Chapter 20
01:09:18.529 : en:Chapter 21
01:11:24.488 : en:Chapter 22
01:15:03.749 : en:Chapter 23
01:17:12.627 : en:Chapter 24
01:19:18.503 : en:Chapter 25
01:23:00.892 : en:Chapter 26
Скріншоти








За українську доріжку подяка п. Sando7
Особиста подяка пану denixx за надану матеріальну допомогу на підтримку цього і майбутніх релізів.
Джерело:


Срібний реліз (на рейтинг впливає 50% завантаженого)
 Трекер:    Зареєстрований   

Завантажити / скачати фільм українською



відео для новачків



 Зареєстрований:   2018-11-27 10:22
 Розмір:   4.51 GB 
 Оцінка фільму:   8.4/10 (Голосів: 7)
   
Інші релізи
   Чорний пес / Black Dog (1998) Ukr/Eng Sando7  3 / 0   1.3 GB   2012-02-10 17:43 
Ваш часовий пояс: GMT + 2 Години

Нова тема   Відповісти