Метелик / Papillon (2017) 720p Ukr/Eng | Sub Eng

Нові коментарі

Нова тема   Відповісти
Автор Повідомлення
staf777 
Відео Гуртом - підтримка та поширення
Відео Гуртом - підтримка та поширення


З нами з: 16.11.16
Востаннє: 24.04.19
Повідомлень: 2284

2018-11-27 00:33  
Метелик / Papillon (2017) 720p Ukr/Eng | Sub Eng

Метелик / Papillon (2017) 720p Ukr/Eng | Sub Eng


Жанр: кримінал, драма, детектив, трилер
Країна: США, Іспанія, Чехія



Кінокомпанія: CCzech Anglo Productions, FishCorb Films, Red Granite Pictures
Режисер: Міхаель Ноер
Актори: Чарлі Ганнем, Рамі Малек, Ів Х'юсон, Роланд Мюллер, Томмі Фленаґан, Ніна Сенікар, Крістофер Фейрбенк, Аттіла Арпа, Славко Собін, Деметрі Горіцас та інші

Сюжет:
У 1931 році Анрі Шарьєра безпідставно звинувачують у вбивстві та ув'язнюють у одну з найсуворіших тюрем тогочасного світу. Кожен день перебування у неволі Анрі присвятив розробці плану втечі. За час ув'язнення він здійснив дев'ять спроб вибратися на волю. Зрештою йому таки вдалося втекти завдяки союзу з фальшивомонетником Луї Дега. Це сталося в 1941 році.


Тривалість: 02:13:14
Якість: 720p
Відео:
кодек:
розмір кадру: 1280x536
бітрейт: 4956 кб/с

Аудіо # 1:
мова: українська
переклад: професійний дубльований | студія AAA-Sound
кодек: 2.0
бітрейт: 192 кб/с

Аудіо # 2:
мова: англійська
переклад: оригінал
кодек: 5.1
бітрейт: 1509 кб/с

Субтитри: [Full][SDH]
мова: англійська
тип: програмні (м'які)
формат: *.srt
Info
General
Unique ID : 30398071549981414863698600454735749137 (0x16DE74A3D69863E1E1E151A4164F6011)
Complete name : G:\Трилер\Papillon (2017) 720p [UKR][ENG][Hurtom].
Format :
Format version : Version 4 / Version 2
File size : 6.20 GiB
Duration : 2 h 13 min
Overall bit rate : 6 660 kb/s
Movie name : Papillon (2017) 720p [UKR][ENG][Hurtom]
Encoded date : UTC 2018-11-26 21:39:31
Writing application : v24.0.0 ('Beyond The Pale') 64-bit
Writing library : libebml v1.3.6 + v1.4.9
Cover : Yes
Attachments : cover.jpg

Video
ID : 1
Format : AVC
Format/Info : Advanced Video Codec
Format profile : [email protected]
Format settings : CABAC / 9 Ref Frames
Format settings, CABAC : Yes
Format settings, ReFrames : 9 frames
Codec ID : V_MPEG4/ISO/AVC
Duration : 2 h 13 min
Bit rate : 4 956 kb/s
Width : 1 280 pixels
Height : 536 pixels
Display aspect ratio : 2.40:1
Frame rate mode : Constant
Frame rate : 23.976 (24000/1001) FPS
Color space : YUV
Chroma subsampling : 4:2:0
Bit depth : 8 bits
Scan type : Progressive
Bits/(Pixel*Frame) : 0.301
Stream size : 4.61 GiB (74%)
Title : Papillon.2017.720p.BluRay..DD5.1.Rus.Eng-KAZTORKA
Writing library : core 155 r2901 7d0ff22
Encoding settings : cabac=1 / ref=9 / deblock=1:-3:-3 / analyse=0x3:0x133 / me=umh / subme=10 / psy=1 / psy_rd=1.00:0.15 / mixed_ref=1 / me_range=64 / chroma_me=1 / trellis=2 / 8x8dct=1 / cqm=0 / deadzone=21,11 / fast_pskip=0 / chroma_qp_offset=-3 / threads=17 / lookahead_threads=2 / sliced_threads=0 / nr=0 / decimate=1 / interlaced=0 / bluray_compat=0 / constrained_intra=0 / bframes=8 / b_pyramid=2 / b_adapt=2 / b_bias=0 / direct=3 / weightb=1 / open_gop=0 / weightp=2 / keyint=300 / keyint_min=24 / scenecut=40 / intra_refresh=0 / rc_lookahead=60 / rc=crf / mbtree=1 / crf=15.5 / qcomp=0.60 / qpmin=0 / qpmax=69 / qpstep=4 / ip_ratio=1.40 / aq=2:1.00
Language : English
Default : Yes
Forced : No

Audio #1
ID : 2
Format : AC-3
Format/Info : Audio Coding 3
Codec ID : A_AC3
Duration : 2 h 13 min
Bit rate mode : Constant
Bit rate : 192 kb/s
Channel(s) : 2 channels
Channel positions : Front: L R
Sampling rate : 48.0 kHz
Frame rate : 31.250 FPS (1536 SPF)
Bit depth : 16 bits
Compression mode : Lossy
Stream size : 183 MiB (3%)
Title : [UKR-DUB]
Language : Ukrainian
Service kind : Complete Main
Default : Yes
Forced : Yes

Audio #2
ID : 3
Format :
Format/Info : Digital Theater Systems
Codec ID : A_DTS
Duration : 2 h 13 min
Bit rate mode : Constant
Bit rate : 1 509 kb/s
Channel(s) : 6 channels
Channel positions : Front: L C R, Side: L R, LFE
Sampling rate : 48.0 kHz
Frame rate : 93.750 FPS (512 SPF)
Bit depth : 24 bits
Compression mode : Lossy
Stream size : 1.40 GiB (23%)
Language : English
Default : No
Forced : No

Text #1
ID : 4
Format : UTF-8
Codec ID : S_TEXT/UTF8
Codec ID/Info : UTF-8 Plain Text
Duration : 2 h 1 min
Bit rate : 28 b/s
Count of elements : 974
Stream size : 25.6 KiB (0%)
Title : Full
Language : English
Default : No
Forced : No

Text #2
ID : 5
Format : UTF-8
Codec ID : S_TEXT/UTF8
Codec ID/Info : UTF-8 Plain Text
Duration : 2 h 12 min
Bit rate : 32 b/s
Count of elements : 1223
Stream size : 31.2 KiB (0%)
Title : SDH
Language : English
Default : No
Forced : No

Menu
00:00:00.000 : :00:00:00.000
00:08:16.621 : :00:08:16.621
00:16:47.590 : :00:16:47.590
00:21:25.910 : :00:21:25.910
00:26:31.965 : :00:26:31.965
00:30:39.796 : :00:30:39.796
00:34:10.799 : :00:34:10.799
00:44:51.147 : :00:44:51.147
00:52:54.588 : :00:52:54.588
00:59:03.665 : :00:59:03.665
01:04:12.891 : :01:04:12.891
01:12:18.334 : :01:12:18.334
01:20:35.372 : :01:20:35.372
01:24:08.418 : :01:24:08.418
01:35:19.547 : :01:35:19.547
01:40:53.047 : :01:40:53.047
01:47:10.883 : :01:47:10.883
01:57:03.016 : :01:57:03.016
02:02:58.913 : :02:02:58.913
02:05:57.550 : :02:05:57.550





Джерело: &
Особиста оцінка: 8 - мені сподобалося
Метелик / Papillon (2017) 720p Ukr/Eng | Sub Eng Метелик / Papillon (2017) 720p Ukr/Eng | Sub Eng

Подяка пану Electroz за доріжку
Підтримати купівлю інших фільмів можна тут.


 Трекер:    Зареєстрований   

Завантажити / скачати фільм українською



відео для новачків



 Зареєстрований:   2018-11-27 00:48
 Розмір:   6.2 GB 
 Оцінка фільму:   8.7/10 (Голосів: 31)
   
Інші релізи
   Метелик / Papillon (2017) Remux 1080p Ukr/Eng | Sub Eng staf777  7 / 0   33.79 GB   2018-12-01 13:33 
   Метелик / Papillon (2017) 1080p H.265 Ukr/Eng | Sub Eng -Star-Lord-  10 / 0   6.4 GB   2018-11-28 00:19 
   Метелик / Papillon (2017) AVC Ukr/Eng | Sub Eng 11FrYkT  48 / 0   2.75 GB   2018-11-27 19:05 
   Метелик / Papillon (2017) 1080p Ukr/Eng | Sub Eng staf777  9 / 0   11.23 GB   2018-11-27 01:23 
   Метелик / Papillon (2017) Electroz  12 / 4   1.46 GB   2018-11-26 23:52 
Відьмачечок 
Свій


З нами з: 17.05.11
Востаннє: 24.04.19
Повідомлень: 106

2018-11-28 23:10  
Книга чудова, оцінимо фільм
mutomba 
VIP


З нами з: 20.10.13
Востаннє: 23.04.19
Повідомлень: 337

2018-11-29 22:49  
Ремейк фільму?? О_о

73го року фільм бомбезний...
Залюбки і цей гляну!
Дякую!

Wensday 
Новенький


З нами з: 18.06.11
Востаннє: 12.01.19
Повідомлень: 2

2018-12-02 00:59  
фільм сподобався, 8,5 з 10.
BSkvaruk 
Новенький


З нами з: 15.09.13
Востаннє: 23.04.19
Повідомлень: 2

2019-01-12 20:59  
гівно! Сенс робити ф-ми про злочинців ? Не рекомендую, краще почитайте історію України.
EDUARDO89 
Новенький


З нами з: 09.08.17
Востаннє: 03.04.19
Повідомлень: 1

2019-01-17 22:21  
фільм Супер !!!!!
qarty1 
Поважний учасник


З нами з: 01.11.09
Востаннє: 24.04.19
Повідомлень: 193

2019-01-25 22:02  
нудно кароче 6/10, треба качати оригінал
Maters 
VIP


З нами з: 27.03.12
Востаннє: 24.04.19
Повідомлень: 1636

2019-02-16 21:32  
не можу не погодитись, місцями фільм нудненький, але загалом враження склались позитивні. 7/10
Ваш часовий пояс: GMT + 2 Години

Нова тема   Відповісти