Паранормальний обмін / L'un dans l'autre (2017) 720p Ukr/Fra

Нові коментарі

Нова тема   Відповісти
Автор Повідомлення
staf777 
Відео Гуртом - підтримка та поширення
Відео Гуртом - підтримка та поширення


З нами з: 16.11.16
Востаннє: 20.09.20
Повідомлень: 4023

2018-11-26 20:00  
Паранормальний обмін / L'un dans l'autre (2017) 720p Ukr/Fra

Паранормальний обмін / L'un dans l'autre (2017) 720p Ukr/Fra


Жанр: комедія, мелодрама
Країна: Франція, Бельгія



Кінокомпанія: Jouror Productions
Режисер: Бруно Шиш
Актори: Стефан Де Гродт, Луїз Бургуан, Ор Атіка, П'єр-Франсуа Мартен-Лаваль, Енн Бенуа, Елліот Дора, Жуд Гайстліх, Філіп Вії, Констанс Лаббе

Сюжет:
П'єр, Емі, Ерік і Пенелопа дружать тисячу років. Але раптом П'єр і Пенелопа стають коханцями. Не в силах вийти з ситуації, вони вирішують припинити відносини. Але після ночі, яка повинна була стати останньою, вони прокидаються... в тілах один одного! Тепер їм потрібно зберегти свою таємницю і якось викрутитися з усіх проблем.


Тривалість: 01:25:31
Якість: 720p
Відео:
кодек:
розмір кадру: 1280x534
бітрейт: 4500 кб/с

Аудіо # 1:
мова: українська
переклад: багатоголосий закадровий
кодек: 2.0
бітрейт: 192 кб/с

Аудіо # 2:
мова: французька
переклад: оригінал
кодек: 5.1
бітрейт: 640 кб/с

Джерело озвучення:
Info
General
Unique ID : 282058323560861727866145581529088788313 (0xD43275073081AEA2152F852D54DA0759)
Complete name : S:\Фільми в HD\Комедія\L'un dans l'autre (2017) 720p [UKR][FRA][Hurtom].
Format :
Format version : Version 4 / Version 2
File size : 3.18 GiB
Duration : 1 h 25 min
Overall bit rate : 5 327 kb/s
Movie name : L'un dans l'autre (2017) 720p [UKR][FRA][Hurtom]
Encoded date : UTC 2018-11-26 17:29:30
Writing application : v24.0.0 ('Beyond The Pale') 64-bit
Writing library : libebml v1.3.6 + v1.4.9
Cover : Yes
Attachments : cover.jpg

Video
ID : 1
Format : AVC
Format/Info : Advanced Video Codec
Format profile : [email protected]
Format settings : CABAC / 12 Ref Frames
Format settings, CABAC : Yes
Format settings, ReFrames : 12 frames
Codec ID : V_MPEG4/ISO/AVC
Duration : 1 h 25 min
Bit rate : 4 500 kb/s
Width : 1 280 pixels
Height : 534 pixels
Display aspect ratio : 2.40:1
Frame rate mode : Constant
Frame rate : 24.000 FPS
Color space : YUV
Chroma subsampling : 4:2:0
Bit depth : 8 bits
Scan type : Progressive
Bits/(Pixel*Frame) : 0.274
Stream size : 2.68 GiB (84%)
Writing library : core 152 r2851kMod ba24899
Encoding settings : cabac=1 / ref=12 / deblock=1:-3:-3 / analyse=0x3:0x113 / me=umh / subme=11 / psy=1 / fade_compensate=0.00 / psy_rd=1.00:0.00 / mixed_ref=1 / me_range=32 / chroma_me=1 / trellis=2 / 8x8dct=1 / cqm=0 / deadzone=21,11 / fast_pskip=1 / chroma_qp_offset=-2 / threads=12 / lookahead_threads=3 / sliced_threads=0 / nr=0 / decimate=0 / interlaced=0 / bluray_compat=0 / constrained_intra=0 / bframes=10 / b_pyramid=2 / b_adapt=2 / b_bias=0 / direct=3 / weightb=1 / open_gop=1 / weightp=2 / keyint=240 / keyint_min=24 / scenecut=40 / intra_refresh=0 / rc_lookahead=40 / rc=2pass / mbtree=0 / bitrate=4500 / ratetol=1.0 / qcomp=0.60 / qpmin=0 / qpmax=69 / qpstep=4 / cplxblur=20.0 / qblur=0.5 / vbv_maxrate=50000 / vbv_bufsize=62500 / nal_hrd=none / filler=0 / ip_ratio=1.40 / pb_ratio=1.30 / aq=3:0.70
Language : Russian
Default : Yes
Forced : No

Audio #1
ID : 2
Format : AC-3
Format/Info : Audio Coding 3
Codec ID : A_AC3
Duration : 1 h 25 min
Bit rate mode : Constant
Bit rate : 192 kb/s
Channel(s) : 2 channels
Channel positions : Front: L R
Sampling rate : 48.0 kHz
Frame rate : 31.250 FPS (1536 SPF)
Bit depth : 16 bits
Compression mode : Lossy
Stream size : 117 MiB (4%)
Title : [UKR-MVO]
Language : Ukrainian
Service kind : Complete Main
Default : Yes
Forced : Yes

Audio #2
ID : 3
Format : AC-3
Format/Info : Audio Coding 3
Codec ID : A_AC3
Duration : 1 h 25 min
Bit rate mode : Constant
Bit rate : 640 kb/s
Channel(s) : 6 channels
Channel positions : Front: L C R, Side: L R, LFE
Sampling rate : 48.0 kHz
Frame rate : 31.250 FPS (1536 SPF)
Bit depth : 16 bits
Compression mode : Lossy
Stream size : 391 MiB (12%)
Title : Original
Language : French
Service kind : Complete Main
Default : No
Forced : No

Menu
00:00:00.000 : en:Глава 1
00:05:11.500 : en:Глава 2
00:11:23.708 : en:Глава 3
00:18:10.291 : en:Глава 4
00:25:19.624 : en:Глава 5
00:31:08.582 : en:Глава 6
00:36:21.290 : en:Глава 7
00:40:55.790 : en:Глава 8
00:47:29.665 : en:Глава 9
00:54:02.706 : en:Глава 10
01:02:06.747 : en:Глава 11
01:07:49.580 : en:Глава 12
01:13:06.413 : en:Глава 13
Скріншоти







За запис звуку з ТБ дякуємо Krigg070, Bohdan237, DaVinci.ua
Джерело: &
Особиста оцінка: 8 - мені сподобалося
Паранормальний обмін / L'un dans l'autre (2017) 720p Ukr/Fra Паранормальний обмін / L'un dans l'autre (2017) 720p Ukr/Fra


 Трекер:    Зареєстрований   

Завантажити / скачати фільм українською



відео для новачків



 Зареєстрований:   2018-11-26 20:43
 Розмір:   3.18 GB 
 Оцінка фільму:   9/10 (Голосів: 10)
   
Інші релізи
bot 
робот


З нами з: 30.09.07
Востаннє: 26.05.05
Повідомлень: 25548

2018-11-26 20:43  
Тему перенесено з Анонси релізів до форуму Фільми в HD


staf777

Ваш часовий пояс: GMT + 2 Години

Нова тема   Відповісти