Сфера / Sphere (1998) AVC 2xUkr/Eng | Sub Eng

Нові коментарі

Нова тема   Відповісти
Автор Повідомлення
staf777 
Відео Гуртом - підтримка та поширення
Відео Гуртом - підтримка та поширення


З нами з: 16.11.16
Востаннє: 06.07.20
Повідомлень: 3829

2018-11-26 19:29  
Сфера / Sphere (1998) AVC 2xUkr/Eng | Sub Eng



Жанр: жахи, фантастика, трилер, драма, детектив
Країна: США



Кінокомпанія: Warner Bros., Baltimore Pictures, Constant c Productions
Режисер: Баррі Левінсон / Barry Levinson
Актори: Дастiн Гоффмен / Dustin Hoffman, Шерон Стоун / Sharon Stone, Семюель Л. Джексон / Samuel L. Jackson, Пітер Койот / Peter Coyote, Лів Шрайбер / Liev Schreiber, Куін Латіфа / Queen Latifah, Марга Гомес / Marga Gómez та інші

Сюжет:
Глибоко у водах Тихого океану американські військові знайшли можливо найбільшу в історії людства знахідку - величезний космічний корабель, що впав на Землю 300 років тому. Яке походження цього корабля? Можливо, на ньому збереглися якісь форми життя? Членам спеціальної підводної експедиції доручено дати відповіді на ці питання.
Фільм "Сфера", дія якого розгортається під водою, тримає вас у глибокій напрузі і відкриває нове вимірювання в жанрі трилера. Таємничий жах, з яким стикається підводна команда, залазить глибоко у підсвідомість.



Рейтинг MPAA: PG-13 - дітям до 13 років перегляд не бажаний
Вікова категорія: 12+


Тривалість: 02:14:12
Якість: AVC
Відео:
кодек:
розмір кадру: 1024x424
бітрейт: 2000 кбіт/с

Аудіо # 1:
мова: українська
переклад: багатоголосий закадровий
кодек: 5.1
бітрейт: 384 кбіт/с

ролі озвучили: Андрій Твердак (Дастін Гоффмен / Норман Гудмен), Владислав Пупков, Олесь Гімбаржевський та Лідія Муращенко


Аудіо # 2:
мова: українська
переклад: багатоголосий закадровий
кодек: 2.0
бітрейт: 192 кбіт/с

Аудіо # 3:
мова: англійська
переклад: оригінал
кодек: 5.1
бітрейт: 448 кбіт/с

Субтитри :
мова: англійська
тип: програмні (м'які)
формат: *.srt

Збережено оригінальні розділи, як на Blu-ray.
Info
Код:
General
Unique ID                   : 234114655525062685809918229429407910635 (0xB020D7B153FE6AD9BD98D4E0454F0AEB)
Complete name               : S:\Sphere (1998) AVC [2xUKR][ENG][Hurtom].
Format                      :
Format version              : Version 4 / Version 2
File size                   : 2.84 GiB
Duration                    : 2 h 14 min
Overall bit rate            : 3 026 kb/s
Movie name                  : Sphere (1998) AVC [2xUKR][ENG][Hurtom]
Encoded date                : UTC 2018-11-26 17:10:32
Writing application         : v24.0.0 ('Beyond The Pale') 64-bit
Writing library             : libebml v1.3.6 + v1.4.9
Cover                       : Yes
Attachments                 : cover.jpg

Video
ID                          : 1
Format                      : AVC
Format/Info                 : Advanced Video Codec
Format profile              : [email protected]
Format settings             : CABAC / 8 Ref Frames
Format settings, CABAC      : Yes
Format settings, ReFrames   : 8 frames
Codec ID                    : V_MPEG4/ISO/AVC
Duration                    : 2 h 14 min
Bit rate                    : 2 000 kb/s
Width                       : 1 024 pixels
Height                      : 424 pixels
Display aspect ratio        : 2.40:1
Frame rate mode             : Constant
Frame rate                  : 23.976 FPS
Color space                 : YUV
Chroma subsampling          : 4:2:0
Bit depth                   : 8 bits
Scan type                   : Progressive
Bits/(Pixel*Frame)          : 0.192
Stream size                 : 1.87 GiB (66%)
Writing library             : core 92 r1510 33d382a
Encoding settings           : cabac=1 / ref=8 / deblock=1:-1:-1 / analyse=0x3:0x133 / me=umh / subme=7 / psy=1 / psy_rd=1.00:0.10 / mixed_ref=1 / me_range=16 / chroma_me=1 / trellis=2 / 8x8dct=1 / cqm=0 / deadzone=21,11 / fast_pskip=0 / chroma_qp_offset=-3 / threads=3 / sliced_threads=0 / nr=0 / decimate=1 / interlaced=0 / constrained_intra=0 / bframes=3 / b_pyramid=2 / b_adapt=2 / b_bias=0 / direct=3 / wpredb=1 / wpredp=2 / keyint=250 / keyint_min=25 / scenecut=40 / intra_refresh=0 / rc_lookahead=50 / rc=2pass / mbtree=1 / bitrate=2000 / ratetol=1.0 / qcomp=0.60 / qpmin=10 / qpmax=51 / qpstep=4 / cplxblur=20.0 / qblur=0.5 / ip_ratio=1.40 / aq=1:1.00
Language                    : English
Default                     : No
Forced                      : No

Audio #1
ID                          : 2
Format                      : AC-3
Format/Info                 : Audio Coding 3
Codec ID                    : A_AC3
Duration                    : 2 h 14 min
Bit rate mode               : Constant
Bit rate                    : 384 kb/s
Channel(s)                  : 6 channels
Channel positions           : Front: L C R, Side: L R, LFE
Sampling rate               : 48.0 kHz
Frame rate                  : 31.250 FPS (1536 SPF)
Bit depth                   : 16 bits
Compression mode            : Lossy
Stream size                 : 369 MiB (13%)
Title                       : [UKR-MVO-K1]
Language                    : Ukrainian
Service kind                : Complete Main
Default                     : Yes
Forced                      : Yes

Audio #2
ID                          : 3
Format                      : AC-3
Format/Info                 : Audio Coding 3
Codec ID                    : A_AC3
Duration                    : 2 h 14 min
Bit rate mode               : Constant
Bit rate                    : 192 kb/s
Channel(s)                  : 2 channels
Channel positions           : Front: L R
Sampling rate               : 48.0 kHz
Frame rate                  : 31.250 FPS (1536 SPF)
Bit depth                   : 16 bits
Compression mode            : Lossy
Stream size                 : 184 MiB (6%)
Title                       : [UKR-MVO-ICTV]
Language                    : Ukrainian
Service kind                : Complete Main
Default                     : No
Forced                      : No

Audio #3
ID                          : 4
Format                      : AC-3
Format/Info                 : Audio Coding 3
Codec ID                    : A_AC3
Duration                    : 2 h 14 min
Bit rate mode               : Constant
Bit rate                    : 448 kb/s
Channel(s)                  : 6 channels
Channel positions           : Front: L C R, Side: L R, LFE
Sampling rate               : 48.0 kHz
Frame rate                  : 31.250 FPS (1536 SPF)
Bit depth                   : 16 bits
Compression mode            : Lossy
Stream size                 : 430 MiB (15%)
Language                    : English
Service kind                : Complete Main
Default                     : No
Forced                      : No

Text
ID                          : 5
Format                      : UTF-8
Codec ID                    : S_TEXT/UTF8
Codec ID/Info               : UTF-8 Plain Text
Duration                    : 2 h 6 min
Bit rate                    : 70 b/s
Count of elements           : 1880
Stream size                 : 65.5 KiB (0%)
Language                    : English
Default                     : No
Forced                      : No








Джерела та подяки: &
ріп відео, оригінальні звук та субтитри - HDClub; українські доріжки - К1: MAKAPOHHIK - зведення, Romario_O та SweetN - запис з ТБ, ICTV - patriot2305 - зведення, Sando7 - запис з ТБ; український постер - hellforces (всі - Гуртом).

Особиста оцінка: 8 - мені сподобалося



ЗАЛИШАЙТЕСЬ ЯКОМОГА ДОВШЕ НА РОЗДАЧІ!

СКАЧАВ САМ - ДАЙ СКАЧАТИ ІНШИМ


Срібний реліз (на рейтинг впливає 50% завантаженого)
 Трекер:    Зареєстрований   

Завантажити / скачати фільм українською



відео для новачків



 Зареєстрований:   2018-11-26 22:08
 Розмір:   2.84 GB 
 Оцінка фільму:   9.1/10 (Голосів: 17)
   
Інші релізи
   Сфера / Sphere (1998) Remux 1080p 2xUkr/Eng | Sub Eng kryk-v.ya.  1 / 0   26.31 GB   2020-03-27 10:43 
   Сфера / Sphere (1998) 1080p H.265 2xUkr/Eng | Sub Eng -Star-Lord-  4 / 0   8.17 GB   2019-11-07 01:13 
   Сфера / Sphere (1998) 2xUkr/Eng Arsenfpu  1 / 0   2.55 GB   2017-03-03 15:21 
   Сфера / Sphere (1998) 720p 2xUkr/Eng | Sub Eng igor911  3 / 0   7.2 GB   2014-05-02 10:29 
   Сфера / Sphere (1998) patriot2305  3 / 0   1.46 GB   2014-01-23 20:15 
   Сфера / Sphere (1998) MAKAPOHHIK  2 / 0   1.46 GB   2009-12-30 18:36 
bot 
робот


З нами з: 30.09.07
Востаннє: 26.05.05
Повідомлень: 24984

2018-11-26 22:08  
Тему перенесено з Анонси релізів до форуму Фільми


staf777

rudder1992 
Поважний учасник


З нами з: 26.02.17
Востаннє: 06.07.20
Повідомлень: 159

2019-01-23 23:29  
От якби ще озвучку від 1+1!)...
sheva912 
Новенький


З нами з: 03.01.17
Востаннє: 04.07.20
Повідомлень: 17

2019-01-24 02:43  
rudder1992 написано:
От якби ще озвучку від 1+1!)...

Така хіба існує?

rudder1992 
Поважний учасник


З нами з: 26.02.17
Востаннє: 06.07.20
Повідомлень: 159

2020-03-26 00:24  
sheva912
Георгій Гавриленко озвучував усі чоловічі ролі(я дивився його фільмографію)
Тож така має бути...
Питання чи вона збереглась до цього часу...(

Ваш часовий пояс: GMT + 2 Години

Нова тема   Відповісти