Замерзлі / Frozen (2010) AVC 2xUkr/Eng | Sub Eng

Нові коментарі

Нова тема   Відповісти
Автор Повідомлення
staf777 
Відео Гуртом - підтримка та поширення
Відео Гуртом - підтримка та поширення


З нами з: 16.11.16
Востаннє: 20.05.19
Повідомлень: 2361

2018-11-26 11:19  
Замерзлі / Frozen (2010) AVC 2xUkr/Eng | Sub Eng

Замерзлі / Frozen (2010) AVC 2xUkr/Eng | Sub Eng


Жанр: драма, трилер
Країна: США



Кінокомпанія: Anchor Bay Films
Режисер: Адам Грін
Актори: Емма Белл, Шон Ешмор, Кевін Зегерс, Ед Екерман, Райлі Вандербілт, Кейн Ходдер, Адам Джонсон, Кріс Йорк, Педер Мелхьоз, Уілл Берретт

Сюжет:
Не вдивляйтеся в безодню, інакше безодня почне вдивлятися у вас. Три молоді людини — сноубордисти і лижник навіть і не підозрювали, як це може бути в реальності, і яке жахливе страхіття чекає на них. Вони застрягають на підйомнику, і веселий вечір в засніжених зимових горах перетворюється на пекло. Страшний холод і обпалюючий вітер несуть загибель нещасним, що опинилися в пастці на величезній висоті. Час працює проти них — ніхто не прийде на допомогу, адже гірськолижний курорт закритий на декілька днів. Залишається одне — рятуватися самим. Але щоб врятуватися — потрібно перемогти жах цієї ночі! Весь жах...


Тривалість: 01:33:18
Якість: AVC
Відео:
кодек:
розмір кадру: 960x400
бітрейт: 2587 кб/с

Аудіо # 1: &
мова: українська
переклад: багатоголосий закадровий
кодек: 2.0
бітрейт: 192 кб/с

Аудіо # 2:
мова: українська
переклад: багатоголосий закадровий
кодек: 2.0
бітрейт: 192 кб/с

Аудіо # 3:
мова: англійська
переклад: оригінал
кодек: 5.1
бітрейт: 384 кб/с

Субтитри:
мова: англійська
тип: програмні (м'які)
формат: *.srt
Скріншоти


MI
General
Unique ID : 132845774961444834419618069659371121347 (0x63F12A64A7699AC5F182A1047F2F2AC3)
Complete name : S:\Фільми AVC\Трилер\Frozen (2010) AVC [2xUKR][ENG][Hurtom].
Format :
Format version : Version 4 / Version 2
File size : 2.18 GiB
Duration : 1 h 33 min
Overall bit rate : 3 352 kb/s
Movie name : Frozen (2010) AVC [2xUKR][ENG][Hurtom]
Encoded date : UTC 2018-11-26 07:06:35
Writing application : v24.0.0 ('Beyond The Pale') 64-bit
Writing library : libebml v1.3.6 + v1.4.9
Cover : Yes
Attachments : cover.jpg

Video
ID : 1
Format : AVC
Format/Info : Advanced Video Codec
Format profile : [email protected]
Format settings : CABAC / 12 Ref Frames
Format settings, CABAC : Yes
Format settings, ReFrames : 12 frames
Codec ID : V_MPEG4/ISO/AVC
Duration : 1 h 33 min
Bit rate : 2 587 kb/s
Width : 960 pixels
Height : 400 pixels
Display aspect ratio : 2.40:1
Frame rate mode : Constant
Frame rate : 23.976 FPS
Color space : YUV
Chroma subsampling : 4:2:0
Bit depth : 8 bits
Scan type : Progressive
Bits/(Pixel*Frame) : 0.281
Stream size : 1.68 GiB (77%)
Title : Frozen
Writing library : core 130 r2273 b3065e6
Encoding settings : cabac=1 / ref=12 / deblock=1:-3:-3 / analyse=0x3:0x133 / me=umh / subme=11 / psy=1 / psy_rd=0.96:0.00 / mixed_ref=1 / me_range=32 / chroma_me=1 / trellis=2 / 8x8dct=1 / cqm=0 / deadzone=21,11 / fast_pskip=0 / chroma_qp_offset=-2 / threads=9 / lookahead_threads=2 / sliced_threads=0 / nr=0 / decimate=1 / interlaced=0 / bluray_compat=0 / constrained_intra=0 / bframes=13 / b_pyramid=2 / b_adapt=2 / b_bias=0 / direct=3 / weightb=1 / open_gop=0 / weightp=2 / keyint=240 / keyint_min=23 / scenecut=40 / intra_refresh=0 / rc_lookahead=150 / rc=2pass / mbtree=1 / bitrate=2587 / ratetol=1.0 / qcomp=0.70 / qpmin=0 / qpmax=69 / qpstep=4 / cplxblur=20.0 / qblur=0.5 / vbv_maxrate=20000 / vbv_bufsize=25000 / nal_hrd=none / ip_ratio=1.35 / aq=1:0.80
Language : English
Default : Yes
Forced : No

Audio #1
ID : 2
Format : AC-3
Format/Info : Audio Coding 3
Codec ID : A_AC3
Duration : 1 h 33 min
Bit rate mode : Constant
Bit rate : 192 kb/s
Channel(s) : 2 channels
Channel positions : Front: L R
Sampling rate : 48.0 kHz
Frame rate : 31.250 FPS (1536 SPF)
Bit depth : 16 bits
Compression mode : Lossy
Stream size : 128 MiB (6%)
Title : [UKR-DVD-MVO]
Language : Ukrainian
Service kind : Complete Main
Default : Yes
Forced : Yes

Audio #2
ID : 3
Format : AC-3
Format/Info : Audio Coding 3
Codec ID : A_AC3
Duration : 1 h 33 min
Bit rate mode : Constant
Bit rate : 192 kb/s
Channel(s) : 2 channels
Channel positions : Front: L R
Sampling rate : 48.0 kHz
Frame rate : 31.250 FPS (1536 SPF)
Bit depth : 16 bits
Compression mode : Lossy
Stream size : 128 MiB (6%)
Title : [UKR-NLO-MVO]
Language : Ukrainian
Service kind : Complete Main
Default : No
Forced : No

Audio #3
ID : 4
Format : AC-3
Format/Info : Audio Coding 3
Codec ID : A_AC3
Duration : 1 h 33 min
Bit rate mode : Constant
Bit rate : 384 kb/s
Channel(s) : 6 channels
Channel positions : Front: L C R, Side: L R, LFE
Sampling rate : 48.0 kHz
Frame rate : 31.250 FPS (1536 SPF)
Bit depth : 16 bits
Compression mode : Lossy
Stream size : 256 MiB (11%)
Title : Original | DD 5.1 @ 384 kbps
Language : English
Service kind : Complete Main
Default : No
Forced : No

Text
ID : 5
Format : UTF-8
Codec ID : S_TEXT/UTF8
Codec ID/Info : UTF-8 Plain Text
Duration : 1 h 27 min
Bit rate : 59 b/s
Count of elements : 1242
Stream size : 38.1 KiB (0%)
Language : English
Default : No
Forced : No

Menu
00:00:00.000 : en:00:00:00.000
00:12:13.899 : en:00:12:13.899
00:19:57.112 : en:00:19:57.112
00:31:07.740 : en:00:31:07.740
00:38:15.376 : en:00:38:15.376
00:51:03.268 : en:00:51:03.268
00:54:51.663 : en:00:54:51.663
00:58:43.978 : en:00:58:43.978
01:05:30.593 : en:01:05:30.593
01:18:49.975 : en:01:18:49.975
01:25:42.846 : en:01:25:42.846
01:28:31.848 : en:01:28:31.848
Джерело: &
Особиста оцінка: 8 - мені сподобалося


 Трекер:    Зареєстрований   

Завантажити / скачати фільм українською



відео для новачків



 Зареєстрований:   2018-11-26 11:19
 Розмір:   2.18 GB 
 Оцінка фільму:   8.6/10 (Голосів: 14)
   
Інші релізи
   Замерзлі / Frozen (2010) Remux 1080p 2xUkr/Eng | Sub Eng staf777  1 / 0   20.89 GB   2019-01-27 21:55 
   Замерзлі / Frozen (2010) 2xUkr/Eng krigg070  2 / 0   1.71 GB   2016-01-05 21:47 
   Замерзлі / Frozen (2010) 720p Ukr/Eng | Sub Eng leroykendall  3 / 0   5.75 GB   2012-03-04 18:43 
antik_2008 
Релізер і модератор відео


З нами з: 20.10.08
Востаннє: 20.05.19
Повідомлень: 1991

2018-11-26 14:38  
2/10
piliq 
Частий відвідувач


З нами з: 04.02.12
Востаннє: 20.05.19
Повідомлень: 31

2018-11-26 15:22  
Цитата:
Трое молодих людей

Ваш часовий пояс: GMT + 2 Години

Нова тема   Відповісти