Джиперс Кріперс 2 / Jeepers Creepers II (2003) 1080p Ukr/Eng | Sub Eng

Нові коментарі

Нова тема   Відповісти
Останній раз роздавалося Kassad (2019-11-20)
Автор Повідомлення
Anonymous 







2018-11-25 21:10  
Джиперс Кріперс 2 / Jeepers Creepers II (2003) 1080p Ukr/Eng | Sub Eng


Джиперс Кріперс 2 / Jeepers Creepers II (2003) 1080p Ukr/Eng | Sub Eng
Альтернативні постери:

Джиперс Кріперс 2 / Jeepers Creepers II (2003) 1080p Ukr/Eng | Sub Eng

Джиперс Кріперс 2 / Jeepers Creepers II (2003) 1080p Ukr/Eng | Sub Eng



Жанр: жахи, трилер
Країна: США


Кінокомпанія: American Zoetrope Pictures
Режисер: Віктор Сальва / Victor Salva
Актори: Рей Вайз, Джонатан Брек, Гарікаї Мутамбірва, Ерік Неннінгер, Ніккі Ейкокс, Тревіс Шиффнер, Лєна Кардвелл, Біллі Аарон Браун, Марі Дельфіно, Даян Делано

Сюжет:
Раз на 23 роки зловісний крилатий монстр пробуджується від довгого сну, щоб 23 дні насичуватися людською плоттю і страхом своїх жертв. Під кінець останнього дня його кошмарного бенкету, і сьогодні древнє невідоме зло чекає багатий улов - спортивна команда і чарівні вболівальниці, що повертаються з тріумфальної гри. Вони одні в зламаному автобусі на пустельному шосе, де не працюють мобільні телефони і нізвідки чекати допомоги. На заході сонця ненажерливий виплодок пекла почне свою криваву вакханалію. Чи зможе його видобуток дожити до ранку, або ця невразлива тварюка вб'є обійнятих жахом тінейджерів одного за одним?

Тривалість: 01:44:04
Якість: 1080

Відео:
Кодек: Н.264
Розмір кадру: 1920x816
Бітрейт: 9413 Кбіт/с

Аудіо 1:
Мова: українська
Переклад: багатоголосий закадровий
Кодек: 5.1
Бітрейт: 448 Кбіт/с

Аудіо 2:
Мова: англійська
Переклад: Оригінал
Кодек: 5.1
Бітрейт: 1509 Кбіт/с

Субтитри:
Мова: англійська
Тип: програмні (м'які)
Формат: *.srt

Info


General
Unique ID : 246592795492499754123091833133397592822 (0xB9840B7DF8996DA8C7FBFA0E22124AF6)
Format :
Format version : Version 4 / Version 2
File size : 8.26 GiB
Duration : 1h 44mn
Overall bit rate : 11.4 Mbps
Movie name : Jeepers Creepers II (2003) 1080 UkrEng SubEng
Encoded date : UTC 2018-11-25 18:17:12
Writing application : v28.2.0 ('The Awakening') 64-bit
Writing library : libebml v1.3.6 + v1.4.9
DURATION : 01:36:09.555000000
NUMBER_OF_FRAMES : 952
NUMBER_OF_BYTES : 28254
_STATISTICS_WRITING_APP : v28.2.0 ('The Awakening') 64-bit
_STATISTICS_WRITING_DATE_UTC : 2018-11-25 18:17:12
_STATISTICS_TAGS : BPS DURATION NUMBER_OF_FRAMES NUMBER_OF_BYTES

Video
ID : 1
Format : AVC
Format/Info : Advanced Video Codec
Format profile : [email protected]
Format settings, CABAC : Yes
Format settings, ReFrames : 5 frames
Codec ID : V_MPEG4/ISO/AVC
Duration : 1h 44mn
Bit rate : 9 413 Kbps
Width : 1 920 pixels
Height : 816 pixels
Display aspect ratio : 2.35:1
Frame rate mode : Constant
Frame rate : 23.976 fps
Color space : YUV
Chroma subsampling : 4:2:0
Bit depth : 8 bits
Scan type : Progressive
Bits/(Pixel*Frame) : 0.251
Stream size : 6.68 GiB (81%)
Title : Jeepers Creepers II (2003) 1080
Writing library : core 142 r2409 d6b4e63
Encoding settings : cabac=1 / ref=5 / deblock=1:0:0 / analyse=0x3:0x133 / me=umh / subme=8 / psy=1 / psy_rd=1.00:0.00 / mixed_ref=1 / me_range=16 / chroma_me=1 / trellis=1 / 8x8dct=1 / cqm=0 / deadzone=21,11 / fast_pskip=0 / chroma_qp_offset=-2 / threads=18 / lookahead_threads=3 / sliced_threads=0 / nr=0 / decimate=1 / interlaced=0 / bluray_compat=0 / constrained_intra=0 / bframes=3 / b_pyramid=2 / b_adapt=1 / b_bias=0 / direct=1 / weightb=1 / open_gop=0 / weightp=2 / keyint=250 / keyint_min=23 / scenecut=40 / intra_refresh=0 / rc_lookahead=40 / rc=2pass / mbtree=1 / bitrate=9413 / ratetol=1.0 / qcomp=0.60 / qpmin=0 / qpmax=69 / qpstep=4 / cplxblur=20.0 / qblur=0.5 / ip_ratio=1.40 / aq=1:1.00
Language : English
Default : Yes
Forced : No
DURATION : 01:44:04.280000000
NUMBER_OF_FRAMES : 149713
NUMBER_OF_BYTES : 7343045027
_STATISTICS_WRITING_APP : v28.2.0 ('The Awakening') 64-bit
_STATISTICS_WRITING_DATE_UTC : 2018-11-25 18:17:12
_STATISTICS_TAGS : BPS DURATION NUMBER_OF_FRAMES NUMBER_OF_BYTES

Audio #1
ID : 2
Format : AC-3
Format/Info : Audio Coding 3
Mode extension : CM (complete main)
Format settings, Endianness : Big
Codec ID : A_AC3
Duration : 1h 44mn
Bit rate mode : Constant
Bit rate : 448 Kbps
Channel(s) : 6 channels
Channel positions : Front: L C R, Side: L R, LFE
Sampling rate : 48.0 KHz
Bit depth : 16 bits
Compression mode : Lossy
Stream size : 333 MiB (4%)
Title : [TET] - 5.1 @ 448 Kbps
Language : Ukrainian
Default : Yes
Forced : No

Audio #2
ID : 3
Format :
Format/Info : Digital Theater Systems
Mode : 16
Format settings, Endianness : Big
Codec ID : A_DTS
Duration : 1h 44mn
Bit rate mode : Constant
Bit rate : 1 509 Kbps
Channel(s) : 6 channels
Channel positions : Front: L C R, Side: L R, LFE
Sampling rate : 48.0 KHz
Bit depth : 24 bits
Compression mode : Lossy
Stream size : 1.10 GiB (13%)
Title : [Original] - 5.1 @ 1509 Kbps
Language : English
Default : No
Forced : No

Text
ID : 4
Format : UTF-8
Codec ID : S_TEXT/UTF8
Codec ID/Info : UTF-8 Plain Text
Title : English
Language : English
Default : No
Forced : No
Скріншоти








Джерело: & rarbg
Українська доріжка - від braveboy
Українізація постерів - Ham_R, hellforces



Срібний реліз (на рейтинг впливає 50% завантаженого)
 Трекер:    Зареєстрований   

Завантажити / скачати фільм українською



відео для новачків



 Зареєстрований:   2018-11-25 21:10
 Розмір:   8.26 GB 
 Оцінка фільму:   10/10 (Голосів: 2)
   
-Star-Lord- 
VIP


З нами з: 09.08.18
Востаннє: 20.11.19
Повідомлень: 1293

2018-11-25 21:17  
BluRay, точно?
Anonymous 







2018-11-25 21:33  
-Star-Lord-, так, а що саме тебе здивувало?
-Star-Lord- 
VIP


З нами з: 09.08.18
Востаннє: 20.11.19
Повідомлень: 1293

2018-11-25 21:37  
Anonymous
Параметри кодування та малий бітрейт.

Додано через 1 хвилину 11 секунд:

Ось це блюр, а те, що у вас - не зовсім.
видалено, п.2.10
Додано через 1 хвилину 36 секунд:

Можливо у Вас , а не Blu-Ray?

Anonymous 







2018-11-25 22:08  
-Star-Lord-
Те. що ви кинули то Remux

це і є BluRay rip

Дякую за посилання

staf777 
Відео Гуртом - підтримка та поширення
Відео Гуртом - підтримка та поширення


З нами з: 16.11.16
Востаннє: 20.11.19
Повідомлень: 3034

2018-11-25 22:14  
Це 1080p - розмір кадру: 1920x816
Ваш часовий пояс: GMT + 2 Години

Нова тема   Відповісти