Формула 1. Сезон 2018. Етап 21. Гран-Прі Абу-Дабі. Гонка (25.11.2018) HDTV 1080i Ukr/Int

Нові коментарі

Нова тема   Відповісти
Останній раз роздавалося [email protected] (2020-03-29)
Автор Повідомлення
sergiyko.5 
VIP


З нами з: 25.02.16
Востаннє: 28.10.20
Повідомлень: 3638

2018-11-25 20:54  
Формула 1. Сезон 2018. Етап 21. Гран-Прі Абу-Дабі. Гонка (25.11.2018) HDTV 1080i Ukr/Int

Формула 1. Сезон 2018. Етап 21. Гран-Прі Абу-Дабі. Гонка (25.11.2018) HDTV 1080i Ukr/Int

Жанр: Перегони Формула 1
Країна: Абу-Дабі
Телеканал: Перший автомобільний
Коментатор: Максим Подзігун

Опис:
Гонка двадцять першого етапу Гран-Прі Абу-Дабі 2018 року відбулась 25 листопада 2018 року о 15 годині за київським часом.


Тривалість: 01:54:05
Якість: HDTV

Відео:кодек: розмір кадру: 1920 х 1080 бітрейт: 8800 кб/с
Аудіо 1: мова: українська кодек: MP2 2.0 бітрейт: 192 кб/с
Аудіо 2: звук: інтершум кодек: MP2 2.0 бітрейт: 192 кб/с

Примітка: під час відеотрансляції була присутня реклама, яку при обробці видалено.
Про файл:
General
Unique ID : 31128092566242300958911839461777783539 (0x176B0D747947A7590D3F60C0392ABAF3)
Complete name : G:\Torrents2\SPORT\Formula 1\F1.2018.Race\F1.2018.21.Abu.Dhabi.Race.1080i.HDTV.Ukr.Int.
Format :
Format version : Version 4
File size : 7.35 GiB
Duration : 1 h 54 min
Overall bit rate : 9 225 kb/s
Encoded date : UTC 2018-11-25 18:39:12
Writing application : v28.1.0 ('Morning Child') 64-bit
Writing library : libebml v1.3.6 + v1.4.9

Video
ID : 1
Format : AVC
Format/Info : Advanced Video Codec
Format profile : [email protected]
Format settings : CABAC / 4 Ref Frames
Format settings, CABAC : Yes
Format settings, ReFrames : 4 frames
Codec ID : V_MPEG4/ISO/AVC
Duration : 1 h 54 min
Bit rate : 8 837 kb/s
Width : 1 920 pixels
Height : 1 080 pixels
Display aspect ratio : 16:9
Frame rate mode : Variable
Frame rate : 50.000 FPS
Original frame rate : 25.000 FPS
Standard : Component
Color space : YUV
Chroma subsampling : 4:2:0
Bit depth : 8 bits
Scan type : Interlaced
Scan type, store method : Separated fields
Scan order : Top Field First
Bits/(Pixel*Frame) : 0.085
Stream size : 7.04 GiB (96%)
Language : English
Default : Yes
Forced : No
Color range : Limited
Color primaries : BT.709
Transfer characteristics : BT.709
Matrix coefficients : BT.709

Audio #1
ID : 2
Format : MPEG Audio
Format version : Version 1
Format profile : Layer 2
Codec ID : A_MPEG/L2
Codec ID/Hint : MP2
Duration : 1 h 54 min
Bit rate mode : Constant
Bit rate : 192 kb/s
Channel(s) : 2 channels
Sampling rate : 48.0 kHz
Frame rate : 41.667 FPS (1152 SPF)
Compression mode : Lossy
Delay relative to video : 136 ms
Stream size : 157 MiB (2%)
Title : Максим Подзігун
Language : Ukrainian
Default : Yes
Forced : Yes

Audio #2
ID : 3
Format : MPEG Audio
Format version : Version 1
Format profile : Layer 2
Codec ID : A_MPEG/L2
Codec ID/Hint : MP2
Duration : 1 h 54 min
Bit rate mode : Constant
Bit rate : 192 kb/s
Channel(s) : 2 channels
Sampling rate : 48.0 kHz
Frame rate : 41.667 FPS (1152 SPF)
Compression mode : Lossy
Delay relative to video : 136 ms
Stream size : 157 MiB (2%)
Title : Інтершум
Default : No
Forced : No
Скріншоти:


Автор запису/зведення: video - Striker, audio - sergiyko


 Трекер:    Зареєстрований   

Завантажити / скачати торрент



відео для новачків



 Зареєстрований:   2018-11-25 20:54
 Розмір:   7.35 GB 
 Оцінка:   10/10 (Голосів: 12)
   
Umbrella.Corps 
Свій


З нами з: 09.04.17
Востаннє: 24.10.20
Повідомлень: 61

2018-11-25 21:07  
це виправлений реліз?
sergiyko.5 
VIP


З нами з: 25.02.16
Востаннє: 28.10.20
Повідомлень: 3638

2018-11-25 21:11  
Так
ququruzka 
Новенький


З нами з: 22.04.16
Востаннє: 13.08.20
Повідомлень: 22

2018-11-27 08:41  
а перший автомобільний бере картинку з "Матч тв" ( рос ) і без свого лого ?
sergiyko.5 
VIP


З нами з: 25.02.16
Востаннє: 28.10.20
Повідомлень: 3638

2018-11-27 09:38  
ququruzka,
Є така штука як відео та аудіо редактори. Береш відео з одним звуком і до нього синхронізуєш аудіо з іншого джерела. Потім залишаєш в програмі MKVToolNix відео і потрібну звукову доріжку, і все, результат якісне відео і українська озвучка.

До передостанньої гонки в мене була можливість писати з супутника "Перший Автомобільний HD", потім канал провайдера Xtra TV перейшов на інше кодування і такої можливості не стало.

Щоб мати якісну картинку і було створено цей реліз. Доступ до відео є тільки з російської відеотрансляції. Я писав польський HD канал, але було багато помилок і вони теж вставляють рекламу. Через добу після часу трансляції на рутрекері з'являється сама повна і якісна роздача від користувача Shewa1, можете вантажити її і насолоджуватися бездоганною якістю.

Ваш часовий пояс: GMT + 2 Години

Нова тема   Відповісти