Джиперс Кріперс / Jeepers Creepers (2001) 1080p Ukr/Eng | Sub Eng

Нові коментарі

Нова тема   Відповісти
Автор Повідомлення
Anonymous 







2018-11-25 21:29  
Джиперс Кріперс / Jeepers Creepers (2001) 1080p Ukr/Eng | Sub Eng


Джиперс Кріперс / Jeepers Creepers (2001) 1080p Ukr/Eng | Sub Eng
Альтернативний постер:

Джиперс Кріперс / Jeepers Creepers (2001) 1080p Ukr/Eng | Sub Eng



Жанр: жахи, трилер, драма
Країна: США


Кінокомпанія: American Zoetrope Pictures
Режисер: Віктор Сальва / Victor Salva
Актори: Джина Філіпс / Gina Philips / Джастін Лонг / Justin Long / Джонатан Брек / Jonathan Breck / Айлін Бреннан / Eileen Brennan / Брендон Сміт / Brandon Smith

Сюжет:
Якби Деррі і Тріш знали, на що перетвориться їх звичайна подорож додому на канікули, то залишилися б у коледжі назавжди. Брат і сестра помітили ЙОГО на безлюдній дорозі поруч із моторошною, старою церквою. Страшна постать в довгому чорному плащі й крислатому капелюсі скидала в підвал згортки, забруднені чимось червоним. Після побаченого потрібно було негайно, втиснути педаль газу взятої напрокат машини та помчати від цього проклятого місця якнайдалі. Але Деррі і Тріш допустили смертельну помилку. Вони вирішили повернутися і подивитися: що ж ВІН ховає там, в підвалі похилої церкви? Ця нерозумна цікавість обернулася самим неймовірним кошмаром, який тільки можна собі уявити...


Тривалість: 01:30:40
Якість: 1080p [з Remastered блурея - нового 2K скану]

Відео:
кодек:
розмір кадру: 1920x1080
бітрейт: 14 Мбіт/с

Аудіо # 1:
мова: українська
переклад: багатоголосий закадровий [K1]
кодек: 5.1
бітрейт: 384 Кбіт/с

Аудіо # 2:
мова: англійська
переклад: оригінал
кодек: 5.1
бітрейт: 1509 Кбіт/с

Субтитри:
мова: англійська
тип: програмні (м'які)
формат: *.srt

Info



General
Unique ID : 206252157140491559207410058733707581089 (0x9B2AB8762B8F20FAC855B3084BEBD6A1)
Format :
Format version : Version 4 / Version 2
File size : 10.1 GiB
Duration : 1h 30mn
Overall bit rate : 15.9 Mbps
Movie name : Jeepers Creepers (2001) 720p by braveboy
Encoded date : UTC 2018-11-25 17:50:11
Writing application : v28.2.0 ('The Awakening') 64-bit
Writing library : libebml v1.3.6 + v1.4.9
DURATION : 01:30:39.584000000
NUMBER_OF_FRAMES : 169987
NUMBER_OF_BYTES : 261100032

Video
ID : 1
Format : AVC
Format/Info : Advanced Video Codec
Format profile : [email protected]
Format settings, CABAC : Yes
Format settings, ReFrames : 4 frames
Codec ID : V_MPEG4/ISO/AVC
Duration : 1h 30mn
Bit rate : 14.0 Mbps
Width : 1 920 pixels
Height : 1 040 pixels
Display aspect ratio : 1.85:1
Frame rate mode : Constant
Frame rate : 23.976 fps
Color space : YUV
Chroma subsampling : 4:2:0
Bit depth : 8 bits
Scan type : Progressive
Bits/(Pixel*Frame) : 0.292
Stream size : 8.66 GiB (86%)
Writing library : core 148 r2692 64f4e24
Encoding settings : cabac=1 / ref=4 / deblock=1:-3:-3 / analyse=0x3:0x133 / me=umh / subme=10 / psy=1 / psy_rd=1.10:0.00 / mixed_ref=1 / me_range=32 / chroma_me=1 / trellis=2 / 8x8dct=1 / cqm=0 / deadzone=21,11 / fast_pskip=1 / chroma_qp_offset=-2 / threads=18 / lookahead_threads=3 / sliced_threads=0 / nr=0 / decimate=1 / interlaced=0 / bluray_compat=0 / constrained_intra=0 / bframes=8 / b_pyramid=2 / b_adapt=2 / b_bias=0 / direct=3 / weightb=1 / open_gop=0 / weightp=2 / keyint=240 / keyint_min=24 / scenecut=40 / intra_refresh=0 / rc_lookahead=60 / rc=2pass / mbtree=1 / bitrate=13999 / ratetol=1.0 / qcomp=0.60 / qpmin=0 / qpmax=69 / qpstep=4 / cplxblur=20.0 / qblur=0.5 / ip_ratio=1.40 / aq=3:0.80
Default : Yes
Forced : No
DURATION : 01:30:40.686000000
NUMBER_OF_FRAMES : 130446
NUMBER_OF_BYTES : 9513043360
_STATISTICS_WRITING_APP : v28.2.0 ('The Awakening') 64-bit
_STATISTICS_TAGS : BPS DURATION NUMBER_OF_FRAMES NUMBER_OF_BYTES

Audio #1
ID : 2
Format : AC-3
Format/Info : Audio Coding 3
Mode extension : CM (complete main)
Format settings, Endianness : Big
Codec ID : A_AC3
Duration : 1h 30mn
Bit rate mode : Constant
Bit rate : 384 Kbps
Channel(s) : 6 channels
Channel positions : Front: L C R, Side: L R, LFE
Sampling rate : 48.0 KHz
Bit depth : 16 bits
Compression mode : Lossy
Delay relative to video : 8ms
Stream size : 249 MiB (2%)
Title : [K1] 5.1 - 384 Kbps
Language : Ukrainian
Default : No
Forced : No
DURATION : 01:30:40.715000000
NUMBER_OF_FRAMES : 510067
NUMBER_OF_BYTES : 1026254804
_STATISTICS_WRITING_APP : v28.2.0 ('The Awakening') 64-bit
_STATISTICS_WRITING_DATE_UTC : 2018-11-25 17:50:11
_STATISTICS_TAGS : BPS DURATION NUMBER_OF_FRAMES NUMBER_OF_BYTES

Audio #2
ID : 3
Format :
Format/Info : Digital Theater Systems
Mode : 16
Format settings, Endianness : Big
Codec ID : A_DTS
Duration : 1h 30mn
Bit rate mode : Constant
Bit rate : 1 509 Kbps
Channel(s) : 6 channels
Channel positions : Front: L C R, Side: L R, LFE
Sampling rate : 48.0 KHz
Bit depth : 24 bits
Compression mode : Lossy
Stream size : 979 MiB (10%)
Title : [Original] 5.1 - 1509 Kbps
Language : English
Default : No
Forced : No
DURATION : 01:23:15.447000000
NUMBER_OF_FRAMES : 810
NUMBER_OF_BYTES : 28369
_STATISTICS_WRITING_APP : v28.2.0 ('The Awakening') 64-bit
_STATISTICS_WRITING_DATE_UTC : 2018-11-25 17:50:11
_STATISTICS_TAGS : BPS DURATION NUMBER_OF_FRAMES NUMBER_OF_BYTES

Text
ID : 4
Format : UTF-8
Codec ID : S_TEXT/UTF8
Codec ID/Info : UTF-8 Plain Text
Language : English
Default : No
Forced : No

Скріншоти








Джерело: & rarbg
Українська доріжка - від braveboy
Українізація постерів - Ham_R, hellforces



Срібний реліз (на рейтинг впливає 50% завантаженого)
 Трекер:    Зареєстрований   

Завантажити / скачати фільм українською



відео для новачків



 Зареєстрований:   2018-11-25 21:41
 Розмір:   10.06 GB 
 Оцінка фільму:   8.5/10 (Голосів: 4)
   
igor911 
Відео Гуртом
Відео Гуртом


З нами з: 18.01.08
Востаннє: 19.04.19
Повідомлень: 12308

2018-11-26 00:22  
Додав в опис посилання на порівняння скріншотів ремастованого та попереднього блурей дисків.
[з Remastered блурея - нового 2K скану]

Ваш часовий пояс: GMT + 2 Години

Нова тема   Відповісти