Формула 1. Сезон 2018. Етап 21. Гран-Прі Абу-Дабі. Гонка (25.11.2018) 720p Ukr/Int

Нові коментарі

Нова тема   Відповісти
Автор Повідомлення
sergiyko.5 
VIP


З нами з: 25.02.16
Востаннє: 21.10.20
Повідомлень: 3586

2018-11-25 20:26  
Формула 1. Сезон 2018. Етап 21. Гран-Прі Абу-Дабі. Гонка (25.11.2018) 720p Ukr/Int

Формула 1. Сезон 2018. Етап 21. Гран-Прі Абу-Дабі. Гонка (25.11.2018) 720p Ukr/Int

Жанр: Перегони Формула 1
Країна: Абу-Дабі
Телеканал: Перший автомобільний
Коментатор: Максим Подзігун

Опис:
Гонка двадцять першого етапу Гран-Прі Абу-Дабі 2018 року відбулась 25 листопада 2018 року о 15 годині за київським часом.


Тривалість: 01:54:04
Якість:

Відео:кодек: розмір кадру: 1280 х 720 бітрейт: 4000 кб/с
Аудіо 1: мова: українська кодек: MP2 2.0 бітрейт: 192 кб/с
Аудіо 2: звук: інтершум кодек: MP2 2.0 бітрейт: 192 кб/с

Примітка: під час відеотрансляції була присутня реклама, яку при обробці видалено.
Про файл:
General
Unique ID : 13078852306604128649180070744225484546 (0x9D6E534514361CE9C1337B420840F02)
Complete name : G:\Torrents2\SPORT\Formula 1\F1.2018.Race\F1.2018.21.Abu.Dhabi.Race.720p..Ukr.Int.
Format :
Format version : Version 4
File size : 3.57 GiB
Duration : 1 h 54 min
Overall bit rate : 4 479 kb/s
Encoded date : UTC 2018-11-25 17:16:44
Writing application : v28.1.0 ('Morning Child') 64-bit
Writing library : libebml v1.3.6 + v1.4.9

Video
ID : 1
Format : AVC
Format/Info : Advanced Video Codec
Format profile : [email protected].1
Format settings : CABAC / 4 Ref Frames
Format settings, CABAC : Yes
Format settings, ReFrames : 4 frames
Format settings, GOP : M=2, N=15
Codec ID : V_MPEG4/ISO/AVC
Duration : 1 h 54 min
Bit rate : 4 092 kb/s
Width : 1 280 pixels
Height : 720 pixels
Display aspect ratio : 16:9
Frame rate mode : Constant
Frame rate : 50.000 FPS
Color space : YUV
Chroma subsampling : 4:2:0
Bit depth : 8 bits
Scan type : Progressive
Bits/(Pixel*Frame) : 0.089
Stream size : 3.26 GiB (91%)
Language : English
Default : Yes
Forced : No

Audio #1
ID : 2
Format : MPEG Audio
Format version : Version 1
Format profile : Layer 2
Codec ID : A_MPEG/L2
Codec ID/Hint : MP2
Duration : 1 h 54 min
Bit rate mode : Constant
Bit rate : 192 kb/s
Channel(s) : 2 channels
Sampling rate : 48.0 kHz
Frame rate : 41.667 FPS (1152 SPF)
Compression mode : Lossy
Delay relative to video : 20 ms
Stream size : 157 MiB (4%)
Title : Максим Подзігун
Language : Ukrainian
Default : Yes
Forced : Yes

Audio #2
ID : 3
Format : AC-3
Format/Info : Audio Coding 3
Commercial name : Dolby Digital
Codec ID : A_AC3
Duration : 1 h 54 min
Bit rate mode : Constant
Bit rate : 192 kb/s
Channel(s) : 2 channels
Channel layout : L R
Sampling rate : 48.0 kHz
Frame rate : 31.250 FPS (1536 SPF)
Bit depth : 16 bits
Compression mode : Lossy
Delay relative to video : 28 ms
Stream size : 157 MiB (4%)
Service kind : Complete Main
Default : No
Forced : No
Скріншоти:


Автор запису/зведення: video - Striker, audio - sergiyko


 Трекер:    Зареєстрований   

Завантажити / скачати торрент



відео для новачків



 Зареєстрований:   2018-11-25 22:09
 Розмір:   3.57 GB 
 Оцінка:   10/10 (Голосів: 6)
   
vrqt72st 
Новенький


З нами з: 07.06.09
Востаннє: 17.10.20
Повідомлень: 4

2018-11-25 20:34  
Можна пояснити для тих, хто не в курсі що таке "мова: інтершум"?
sergiyko.5 
VIP


З нами з: 25.02.16
Востаннє: 21.10.20
Повідомлень: 3586

2018-11-25 20:39  
vrqt72st написано:
Можна пояснити для тих, хто не в курсі що таке "мова: інтершум"?

Це звук всього що чутно на перегонах під час трансляції, без коментарів.

antik_2008 
Релізер і модератор відео


З нами з: 20.10.08
Востаннє: 20.10.20
Повідомлень: 4188

2018-11-25 21:20  
sergiyko.5
оновлення чекати ?

sergiyko.5 
VIP


З нами з: 25.02.16
Востаннє: 21.10.20
Повідомлень: 3586

2018-11-25 21:41  
так
Umbrella.Corps 
Свій


З нами з: 09.04.17
Востаннє: 27.09.20
Повідомлень: 60

2018-11-25 21:44  
sergiyko.5
оновлення буде сьогодні хоч?

sergiyko.5 
VIP


З нами з: 25.02.16
Востаннє: 21.10.20
Повідомлень: 3586

2018-11-25 22:10  
Помилку виправлено, торент перезалито.
Ваш часовий пояс: GMT + 2 Години

Нова тема   Відповісти