Абсолютна влада / Imperium (2016) 720p Ukr/Eng | Sub Eng

Нові коментарі

Нова тема   Відповісти
Автор Повідомлення
staf777 
Відео Гуртом - підтримка та поширення
Відео Гуртом - підтримка та поширення


З нами з: 16.11.16
Востаннє: 01.10.20
Повідомлень: 4084

2018-11-25 14:30  
Абсолютна влада / Imperium (2016) 720p Ukr/Eng | Sub Eng



Жанр: драма, трилер, кримінальний
Країна: США



Кінокомпанія: Atomic Features, Green-Light International, Grindstone Entertainment
Режисер: Деніел Рагусіс
Актори: Деніел Редкліфф, Тоні Коллетт, Трейсі Леттс та інші
Сюжет:
Агент ФБР працює під прикриттям в банді неонацистів для запобігання теракту. Як це – жити кожен день в потоці насильства і жорстокості, відстоювати своє право кулаками, виголити головуі закрити душу? Що таке неонацизм – це не тільки хулігани і скінхеди, але і благополучні пани в дорогих костюмах, готові знищити місто заради ідеї.


Тривалість: 01:48:36
Якість: 720p

Відео:
кодек:
розмір кадру: 1280x536
бітрейт: 7350 кб/с

Аудіо #1:
мова: українська
переклад: двоголосий закадровий
кодек: 2.0
бітрейт: 192 кб/с

Аудіо # 2:
мова: англійська
переклад: оригінал
кодек: 5.1
бітрейт: 448 кб/с

Субтитри: [Full][SDH]
мова: англійська
тип: програмні (м'які)
формат: *.srt
Info
Код:
General
Unique ID                   : 187654404124251611809661796959190842328 (0x8D2CEC71B2DBD9E118268E3887E4FBD8)
Complete name               : S:\Фільми в HD\Трилер\Imperium (2016) 720p [UKR][ENG][Hurtom].
Format                      :
Format version              : Version 4 / Version 2
File size                   : 6.06 GiB
Duration                    : 1 h 48 min
Overall bit rate            : 7 990 kb/s
Movie name                  : Imperium (2016) 720p [UKR][ENG][Hurtom]
Encoded date                : UTC 2018-11-25 12:22:45
Writing application         : v24.0.0 ('Beyond The Pale') 64-bit
Writing library             : libebml v1.3.6 + v1.4.9
Cover                       : Yes
Attachments                 : cover.jpg

Video
ID                          : 1
Format                      : AVC
Format/Info                 : Advanced Video Codec
Format profile              : [email protected]
Format settings             : CABAC / 8 Ref Frames
Format settings, CABAC      : Yes
Format settings, ReFrames   : 8 frames
Codec ID                    : V_MPEG4/ISO/AVC
Duration                    : 1 h 48 min
Bit rate                    : 7 350 kb/s
Width                       : 1 280 pixels
Height                      : 536 pixels
Display aspect ratio        : 2.40:1
Frame rate mode             : Constant
Frame rate                  : 23.976 (24000/1001) FPS
Color space                 : YUV
Chroma subsampling          : 4:2:0
Bit depth                   : 8 bits
Scan type                   : Progressive
Bits/(Pixel*Frame)          : 0.447
Stream size                 : 5.57 GiB (92%)
Writing library             : core 142 r2431+42 c69a006 tMod [[email protected] X86_64]
Encoding settings           : cabac=1 / ref=8 / deblock=1:-3:-3 / analyse=0x3:0x133 / me=umh / subme=11 / psy=1 / fade_compensate=0.00 / psy_rd=1.05:1.05 / mixed_ref=1 / me_range=48 / chroma_me=1 / trellis=2 / 8x8dct=1 / cqm=0 / deadzone=21,11 / fast_pskip=0 / chroma_qp_offset=-4 / threads=16 / lookahead_threads=2 / sliced_threads=0 / nr=0 / decimate=0 / interlaced=0 / bluray_compat=0 / constrained_intra=0 / fgo=0 / bframes=8 / b_pyramid=2 / b_adapt=2 / b_bias=0 / direct=3 / weightb=1 / open_gop=0 / weightp=2 / keyint=240 / keyint_min=23 / scenecut=40 / intra_refresh=0 / rc_lookahead=150 / rc=2pass / mbtree=0 / bitrate=7350 / ratetol=1.0 / qcomp=0.80 / qpmin=0:0:0 / qpmax=69:69:69 / qpstep=4 / cplxblur=20.0 / qblur=0.5 / vbv_maxrate=300000 / vbv_bufsize=300000 / nal_hrd=none / filler=0 / ip_ratio=1.30 / pb_ratio=1.40 / aq=2:0.68 / aq-sensitivity=10.00 / aq-factor=1.00:1.00:1.00 / aq2=0 / aq3=0
Language                    : English
Default                     : Yes
Forced                      : No
Color range                 : Limited
Color primaries             : BT.709
Transfer characteristics    : BT.709
Matrix coefficients         : BT.709

Audio #1
ID                          : 2
Format                      : AC-3
Format/Info                 : Audio Coding 3
Codec ID                    : A_AC3
Duration                    : 1 h 48 min
Bit rate mode               : Constant
Bit rate                    : 192 kb/s
Channel(s)                  : 2 channels
Channel positions           : Front: L R
Sampling rate               : 48.0 kHz
Frame rate                  : 31.250 FPS (1536 SPF)
Bit depth                   : 16 bits
Compression mode            : Lossy
Stream size                 : 149 MiB (2%)
Title                       : [UKR-DVO]
Language                    : Ukrainian
Service kind                : Complete Main
Default                     : Yes
Forced                      : Yes

Audio #2
ID                          : 3
Format                      : AC-3
Format/Info                 : Audio Coding 3
Codec ID                    : A_AC3
Duration                    : 1 h 48 min
Bit rate mode               : Constant
Bit rate                    : 448 kb/s
Channel(s)                  : 6 channels
Channel positions           : Front: L C R, Side: L R, LFE
Sampling rate               : 48.0 kHz
Frame rate                  : 31.250 FPS (1536 SPF)
Bit depth                   : 16 bits
Compression mode            : Lossy
Stream size                 : 348 MiB (6%)
Title                       : Original
Language                    : English
Service kind                : Complete Main
Default                     : No
Forced                      : No

Text #1
ID                          : 4
Format                      : UTF-8
Codec ID                    : S_TEXT/UTF8
Codec ID/Info               : UTF-8 Plain Text
Duration                    : 1 h 39 min
Bit rate                    : 85 b/s
Count of elements           : 1558
Stream size                 : 62.5 KiB (0%)
Title                       : Full
Language                    : English
Default                     : No
Forced                      : No

Text #2
ID                          : 5
Format                      : UTF-8
Codec ID                    : S_TEXT/UTF8
Codec ID/Info               : UTF-8 Plain Text
Duration                    : 1 h 39 min
Bit rate                    : 88 b/s
Count of elements           : 1609
Stream size                 : 64.8 KiB (0%)
Title                       : SDH
Language                    : English
Default                     : No
Forced                      : No

Menu
00:00:00.000                : en:00:00:00.000
00:07:07.260                : en:00:07:07.260
00:14:49.680                : en:00:14:49.680
00:21:11.645                : en:00:21:11.645
00:27:08.836                : en:00:27:08.836
00:33:24.002                : en:00:33:24.002
00:39:43.256                : en:00:39:43.256
00:46:01.008                : en:00:46:01.008
00:51:49.565                : en:00:51:49.565
00:57:56.640                : en:00:57:56.640
01:05:00.271                : en:01:05:00.271
01:11:59.899                : en:01:11:59.899
01:19:28.222                : en:01:19:28.222
01:26:43.573                : en:01:26:43.573
01:30:29.799                : en:01:30:29.799
01:38:49.590                : en:01:38:49.590
Скріншоти







Подяка пану krigg070 за українську доріжку.
Джерело: &
Особиста оцінка: 8 - мені сподобалося
Абсолютна влада / Imperium (2016) 720p Ukr/Eng | Sub Eng Абсолютна влада / Imperium (2016) 720p Ukr/Eng | Sub Eng


 Трекер:    Зареєстрований   

Завантажити / скачати фільм українською



відео для новачків



 Зареєстрований:   2018-11-25 15:50
 Розмір:   6.06 GB 
 Оцінка фільму:   7.9/10 (Голосів: 11)
   
Інші релізи
bot 
робот


З нами з: 30.09.07
Востаннє: 26.05.05
Повідомлень: 25677

2018-11-25 15:50  
Тему перенесено з Анонси релізів до форуму Фільми в HD


staf777

Nymizmat 
Новенький


З нами з: 09.11.14
Востаннє: 30.09.20
Повідомлень: 22

2020-08-27 23:16  
Фільм загалом не сподобався. Жодна з ідей ні за ні проти не була розкрита.
Коли із самого початку він почав втиратись в довіру декілька моментів були зіграні досить реалістично, але загалом він сам себе видав своєю не стриманістю і бажанням якнайшвидше отримати докази і десь з середини фільму персонаж Редкліффа був повністю розкритий. Всі його підозрювали, а він з ще більшим завзяттям розкривав себе. Не логічно.

Ваш часовий пояс: GMT + 2 Години

Нова тема   Відповісти