Формула 1. Сезон 2018. Етап 21. Гран-Прі Абу-Дабі. Кваліфікація (24.11.2018) 720p Ukr/Eng/Int

Нові коментарі

Нова тема   Відповісти
Останній раз роздавалося sergiyko.5 (2019-06-09)
Автор Повідомлення
sergiyko.5 
VIP


З нами з: 25.02.16
Востаннє: 26.10.20
Повідомлень: 3617

2018-11-25 10:55  
Формула 1. Сезон 2018. Етап 21. Гран-Прі Абу-Дабі. Кваліфікація (24.11.2018) 720p Ukr/Eng/Int

Формула 1. Сезон 2018. Етап 21. Гран-Прі Абу-Дабі. Кваліфікація (24.11.2018) 720p Ukr/Eng/Int

Жанр: Перегони Формула 1
Країна: Абу-Дабі
Телеканал: Перший автомобільний
Коментатор: Максим Подзігун

Опис:
Кваліфікація двадцять першого етапу Гран-Прі Абу-Дабі 2018 року відбулась 24 листопада 2018 року о 15 годині за київським часом.


Тривалість: 01:38:24
Якість:

Відео:кодек: розмір кадру: 1280 х 720 бітрейт: 4900 кб/с
Аудіо 1: мова: українська кодек: 2.0 бітрейт: 192 кб/с
Аудіо 2: мова: англійська кодек: 5.1 бітрейт: 384 кб/с
Аудіо 3: мова: інтершум кодек: 5.1 бітрейт: 448 кб/с
Про файл:
General
Unique ID : 283282194710524619923714188113486778660 (0xD51E2A88D661CFB96785C005759B9124)
Complete name : G:\Torrents2\SPORT\Formula 1\F1.2018.Qualifying\F1.2018.21.Abu.Dhabi.Qualifying.AVC.720p.50fps.
Format :
Format version : Version 4
File size : 4.08 GiB
Duration : 1 h 38 min
Overall bit rate : 5 940 kb/s
Encoded date : UTC 2018-11-25 08:49:17
Writing application : v28.1.0 ('Morning Child') 64-bit
Writing library : libebml v1.3.6 + v1.4.9

Video
ID : 1
Format : AVC
Format/Info : Advanced Video Codec
Format profile : [email protected]
Format settings : CABAC / 4 Ref Frames
Format settings, CABAC : Yes
Format settings, ReFrames : 4 frames
Codec ID : V_MPEG4/ISO/AVC
Duration : 1 h 38 min
Bit rate : 4 912 kb/s
Width : 1 280 pixels
Height : 720 pixels
Display aspect ratio : 16:9
Frame rate mode : Constant
Frame rate : 50.000 FPS
Color space : YUV
Chroma subsampling : 4:2:0
Bit depth : 8 bits
Scan type : Progressive
Bits/(Pixel*Frame) : 0.107
Stream size : 3.38 GiB (83%)
Writing library : core 148 r2705 3f5ed56
Encoding settings : cabac=1 / ref=3 / deblock=1:0:0 / analyse=0x3:0x113 / me=umh / subme=9 / psy=1 / psy_rd=1.00:0.00 / mixed_ref=1 / me_range=32 / chroma_me=1 / trellis=1 / 8x8dct=1 / cqm=0 / deadzone=21,11 / fast_pskip=1 / chroma_qp_offset=-2 / threads=18 / lookahead_threads=1 / sliced_threads=0 / nr=0 / decimate=1 / interlaced=0 / bluray_compat=0 / constrained_intra=0 / bframes=12 / b_pyramid=2 / b_adapt=1 / b_bias=0 / direct=1 / weightb=1 / open_gop=0 / weightp=2 / keyint=100 / keyint_min=10 / scenecut=40 / intra_refresh=0 / rc_lookahead=40 / rc=crf / mbtree=1 / crf=20.0 / qcomp=0.60 / qpmin=0 / qpmax=69 / qpstep=4 / vbv_maxrate=20000 / vbv_bufsize=25000 / crf_max=0.0 / nal_hrd=none / filler=0 / ip_ratio=1.40 / aq=1:1.00
Language : English
Default : Yes
Forced : No

Audio #1
ID : 2
Format : AC-3
Format/Info : Audio Coding 3
Commercial name : Dolby Digital
Codec ID : A_AC3
Duration : 1 h 38 min
Bit rate mode : Constant
Bit rate : 192 kb/s
Channel(s) : 2 channels
Channel layout : L R
Sampling rate : 48.0 kHz
Frame rate : 31.250 FPS (1536 SPF)
Bit depth : 16 bits
Compression mode : Lossy
Delay relative to video : 120 ms
Stream size : 135 MiB (3%)
Title : 1 Auto
Language : Ukrainian
Service kind : Complete Main
Default : Yes
Forced : Yes

Audio #2
ID : 3
Format : AC-3
Format/Info : Audio Coding 3
Commercial name : Dolby Digital
Codec ID : A_AC3
Duration : 1 h 38 min
Bit rate mode : Constant
Bit rate : 384 kb/s
Channel(s) : 6 channels
Channel layout : L R C LFE Ls Rs
Sampling rate : 48.0 kHz
Frame rate : 31.250 FPS (1536 SPF)
Bit depth : 16 bits
Compression mode : Lossy
Delay relative to video : 120 ms
Stream size : 270 MiB (6%)
Title : SkySports F1
Language : English
Service kind : Complete Main
Default : No
Forced : No

Audio #3
ID : 4
Format : AC-3
Format/Info : Audio Coding 3
Commercial name : Dolby Digital
Codec ID : A_AC3
Duration : 1 h 38 min
Bit rate mode : Constant
Bit rate : 448 kb/s
Channel(s) : 6 channels
Channel layout : L R C LFE Ls Rs
Sampling rate : 48.0 kHz
Frame rate : 31.250 FPS (1536 SPF)
Bit depth : 16 bits
Compression mode : Lossy
Delay relative to video : 120 ms
Stream size : 315 MiB (8%)
Title : Natural Sounds
Service kind : Complete Main
Default : No
Forced : No
Скріншоти:



Автор запису/зведення: Shewa1


 Трекер:    Зареєстрований   

Завантажити / скачати торрент



відео для новачків



 Зареєстрований:   2018-11-25 10:55
 Розмір:   4.08 GB 
 Оцінка:   10/10 (Голосів: 3)
   
sergiyko.5 
VIP


З нами з: 25.02.16
Востаннє: 26.10.20
Повідомлень: 3617

2018-11-25 11:55  
Ріп зроблено з запису 16.6 Mbps; 4:2:2; 10 bit, якість відмінна. Але ріп з'являється через 15-24 годин після події, які потрібні автору релізів на створення ріпу і зведення доріжок.
volodymyr417 
Новенький


З нами з: 27.08.11
Востаннє: 26.10.20
Повідомлень: 10

2018-11-25 19:03  
О котрій можна чекати гонку??
Ваш часовий пояс: GMT + 2 Години

Нова тема   Відповісти