Барбі та 12 Танцюючих принцес / Barbie in the 12 Dancing Princesses (2006) -AVC Ukr/Eng

Нові коментарі

Нова тема   Відповісти
Автор Повідомлення
sergiyko.5 
VIP


З нами з: 25.02.16
Востаннє: 05.12.19
Повідомлень: 2801

2018-11-25 10:42  
Барбі та 12 Танцюючих принцес / Barbie in the 12 Dancing Princesses (2006) -AVC Ukr/Eng

Барбі та 12 Танцюючих принцес / Barbie in the 12 Dancing Princesses (2006) -AVC Ukr/Eng

Жанр: пригоди, фентазі
Країна: США
Режисер: Грег Річардсон
Ролі озвучують: Ешлі Болл, Кетлін Барр, Едріенн Картер, Дженніфер Коппінг

Сюжет:
Барбі виконає свій танець, який проникне в глибини вашого серця, в новій чарівній пригоді "12 Танцюючих Принцес".
Приєднайтесь до Барбі, в ролі прекрасної Принцеси Женев'єви, і її 11 танцюючих принцес-сестер, щоб розгадати секретний вхід в дивовижний чарівний світ, де збуваються мрії! Коли їх батькові загрожує небезпека втратити королівство, Принцеса Женев'єва і її сестри об'єднуються, щоб зберегти день і допомогти батькові впоратися з труднощами. Завдяки цьому вони пізнають, що сила сім'ї може подолати всі перешкоди.




Тривалість: 01:22:26
Якість:

Відео: кодек: розмір кадру: [email protected] (16:9, anamorphic) бітрейт: 1855 кб/с
Аудіо # 1: мова: українська переклад: професійний дубльований кодек: 2.0 бітрейт: 192 кб/с
Озвучення:
Аудіо # 2: мова: англійська переклад: оригінал кодек: 2.0 бітрейт: 192 кб/с
Про файл:
General
Unique ID : 70751800144581534550173694224260363829 (0x353A4D11BAA85883BAD05D00F02B7635)
Complete name : G:\Torrents2\MULT\Barbie in the 12 Dancing Princesses.2006.-AVC.
Format :
Format version : Version 4
File size : 1.32 GiB
Duration : 1 h 22 min
Overall bit rate : 2 286 kb/s
Movie name : Barbie in the 12 Dancing Princesses 2006 by sergiyko
Encoded date : UTC 2018-11-25 08:39:30
Writing application : v28.1.0 ('Morning Child') 64-bit
Writing library : libebml v1.3.6 + v1.4.9

Video
ID : 1
Format : AVC
Format/Info : Advanced Video Codec
Format profile : [email protected]
Format settings : CABAC / 8 Ref Frames
Format settings, CABAC : Yes
Format settings, ReFrames : 8 frames
Codec ID : V_MPEG4/ISO/AVC
Duration : 1 h 22 min
Bit rate : 1 900 kb/s
Width : 720 pixels
Height : 576 pixels
Display aspect ratio : 16:9
Original display aspect rat : 5:4
Frame rate mode : Constant
Frame rate : 25.000 FPS
Standard : PAL
Color space : YUV
Chroma subsampling : 4:2:0
Bit depth : 8 bits
Scan type : Progressive
Bits/(Pixel*Frame) : 0.183
Stream size : 1.09 GiB (83%)
Title : Barbie in the 12 Dancing Princesses 2006
Writing library : core 112 r1867 22bfd31
Encoding settings : cabac=1 / ref=8 / deblock=1:-1:-1 / analyse=0x3:0x133 / me=tesa / subme=10 / psy=1 / psy_rd=1.00:0.00 / mixed_ref=1 / me_range=24 / chroma_me=1 / trellis=2 / 8x8dct=1 / cqm=0 / deadzone=21,11 / fast_pskip=0 / chroma_qp_offset=-2 / threads=3 / sliced_threads=0 / nr=0 / decimate=1 / interlaced=0 / constrained_intra=0 / bframes=5 / b_pyramid=2 / b_adapt=2 / b_bias=0 / direct=3 / weightb=1 / open_gop=0 / weightp=2 / keyint=250 / keyint_min=25 / scenecut=40 / intra_refresh=0 / rc_lookahead=60 / rc=2pass / mbtree=1 / bitrate=1900 / ratetol=1.0 / qcomp=0.60 / qpmin=10 / qpmax=51 / qpstep=4 / cplxblur=20.0 / qblur=0.5 / ip_ratio=1.40 / aq=1:1.00
Language : English
Default : Yes
Forced : No

Audio #1
ID : 2
Format : AC-3
Format/Info : Audio Coding 3
Commercial name : Dolby Digital
Codec ID : A_AC3
Duration : 1 h 22 min
Bit rate mode : Constant
Bit rate : 192 kb/s
Channel(s) : 2 channels
Channel layout : L R
Sampling rate : 48.0 kHz
Frame rate : 31.250 FPS (1536 SPF)
Bit depth : 16 bits
Compression mode : Lossy
Stream size : 113 MiB (8%)
Title : DUB 2ch | K1
Language : Ukrainian
Service kind : Complete Main
Default : Yes
Forced : Yes

Audio #2
ID : 3
Format : AC-3
Format/Info : Audio Coding 3
Commercial name : Dolby Digital
Codec ID : A_AC3
Duration : 1 h 22 min
Bit rate mode : Constant
Bit rate : 192 kb/s
Channel(s) : 2 channels
Channel layout : L R
Sampling rate : 48.0 kHz
Frame rate : 31.250 FPS (1536 SPF)
Bit depth : 16 bits
Compression mode : Lossy
Stream size : 113 MiB (8%)
Title : Original
Language : English
Service kind : Complete Main
Default : No
Forced : No
Скріншоти:

Додаткові скріншоти:

Запис/зведення: sergiyko


 Трекер:    Зареєстрований   

Завантажити / скачати мультфільм українською



відео для новачків



 Зареєстрований:   2018-11-25 10:42
 Розмір:   1.32 GB 
 Оцінка мультфільму:   10/10 (Голосів: 4)
   
11FrYkT 
Модератор відео


З нами з: 20.02.11
Востаннє: 05.12.19
Повідомлень: 6381

2018-11-27 15:32  
sergiyko.5 написано:
1024x576

зробіть скріни такого розміру

sergiyko.5 
VIP


З нами з: 25.02.16
Востаннє: 05.12.19
Повідомлень: 2801

2018-11-27 15:45  
11FrYkT написано:
зробіть скріни такого розміру


Цитата:
розмір кадру: [email protected] (16:9, anamorphic)


Вони робляться такими як з DVD дисків. Такий ріп. Ви ніколи не зустрічали викривлень в скріншотах!? Дуже дивна реакція модератора.

Dark Invader 
Модератор відео


З нами з: 06.01.11
Востаннє: 05.12.19
Повідомлень: 2789

2018-11-27 15:56  
sergiyko.5
sergiyko.5 написано:
1024x576

Через VLC плеєр можна зробити і такого розміру.

sergiyko.5 
VIP


З нами з: 25.02.16
Востаннє: 05.12.19
Повідомлень: 2801

2018-11-27 16:03  
Для чого?
В Info чітко вказано
Цитата:
Width : 720 pixels
Height : 576 pixels


Додано через 1 хвилину 47 секунд:

Dark Invader ,
11FrYkT,

І в мене написано:
розмір кадру: [email protected] (16:9, anamorphic)
а не розмір кадру: 1024x576
Читайте уважно

Додано через 3 хвилини 50 секунд:

Не розумію суті претензії. Особисте щось, чи вам просто нічим зайнятись.

Зробив запис, знайшов доволі якісний ріп, звів звук. Оформив реліз, роздав. Чому вам не так!? Скріни такі як є, справжні, не обман.

11FrYkT 
Модератор відео


З нами з: 20.02.11
Востаннє: 05.12.19
Повідомлень: 6381

2018-11-28 12:47  
sergiyko.5 написано:
Не розумію суті претензії. Особисте щось, чи вам просто нічим зайнятись.


вони у вас сплюснуті, не розумію цієї дискусії
Цитата:
Особисте щось, чи вам просто нічим зайнятись

зайнятись тут тільки Вам нічим, вся толока робить і без проблем, дехто навіть 2 видіа, а тут потрібно роздути бо Ви без цього не можете, я вам відкрию секрет, всі це знають

НТН 
Відео Гуртом - фільмокрай
Відео Гуртом - фільмокрай


З нами з: 25.12.11
Востаннє: 05.12.19
Повідомлень: 2321

2018-11-28 15:48  
І я писав цей мультфільм
sergiyko.5 
VIP


З нами з: 25.02.16
Востаннє: 05.12.19
Повідомлень: 2801

2018-11-28 16:07  
11FrYkT
розмір кадру: 720x576

Додано через 12 хвилин 38 секунд:

uk.wikipedia.org написано:
Анаморфне зображення — спотворена проекція, або перспектива, що потребує від глядача спеціальних пристроїв (або ж огляд з певної точки) для відновлення зображення. Анаморфоване зображення — технічно трансформоване зображення для специфічного відтворення, як напр. у широкоформатному кіно.

Цифрове анаморфування - технологія цифрового відеозапису або телетрансляції широкоекранного зображення формату 16:9 з цифровим стисненням по горизонталі до співвідношення сторін 4:3, прийнятого в телебаченні стандартної чіткості, і наступним розтягуванням при відтворенні. Застосовується при сучасному мастерингу DVD дисків і в цифровому телемовленні стандартної чіткості. Технологія є цифровим аналогом оптичного анаморфування, застосовуваного при зйомці і демонстрації анаморфованих широкоекранних кінофільмів з використанням циліндричної оптики.


Ось релізи
https://toloka.to/t94234
https://toloka.to/t93564
https://toloka.to/t93607
які ви перевірили, з тими самими параметрами і скріншотами. Що змінилось у ваших підходах і знаннях?

Щодо двох відіва, я роблю роботу з релізом від початку до кінця сам. А дехто отримує все готове і ріп і доріжку, і хто працює з них більше і кому важче? Не заважайте і все буде добре.

11FrYkT 
Модератор відео


З нами з: 20.02.11
Востаннє: 05.12.19
Повідомлень: 6381

2018-11-28 16:19  
sergiyko.5 написано:

Ось релізи
https://toloka.to/t94234
https://toloka.to/t93564
https://toloka.to/t93607
які ви перевірили, з тими самими параметрами і скріншотами. Що змінилось у ваших підходах і знаннях?


значить не догледів бо там не таке сильне спотворення

sergiyko.5 
VIP


З нами з: 25.02.16
Востаннє: 05.12.19
Повідомлень: 2801

2018-11-28 16:29  
Це значить що скріни відповідають заявленому розміру кадра. Зайдіть на великі закордонні трекери для обміну досвідом.
11FrYkT 
Модератор відео


З нами з: 20.02.11
Востаннє: 05.12.19
Повідомлень: 6381

2018-11-28 16:31  
sergiyko.5 написано:
Це значить що скріни відповідають заявленому розміру кадра. Зайдіть на великі закордонні трекери для обміну досвідом.

я вам щось казав що не відповідають??? я попросив замінити або додати ще альтернативні за тим розіміром, Ви ж роздули цілу проблему

sergiyko.5 
VIP


З нами з: 25.02.16
Востаннє: 05.12.19
Повідомлень: 2801

2018-11-28 16:33  
А де написано вами про додати? Я не бачу.
11FrYkT 
Модератор відео


З нами з: 20.02.11
Востаннє: 05.12.19
Повідомлень: 6381

2018-11-29 08:55  
sergiyko.5 написано:
А де написано вами про додати? Я не бачу.

1 повідомлення, там написав зробіть (нехай буде додайте)

Ваш часовий пояс: GMT + 2 Години

Нова тема   Відповісти