Край Коштовних каменів / Houseki no Kuni (Серія 3 з 12) (2017) 720p Ukr/Jap | Sub Ukr

Нові коментарі

Нова тема   Відповісти
Останній раз роздавалося Konstantin_Exorcist (2019-08-19)
Автор Повідомлення
Konstantin_Exorcist 
Забанено
Забанено


З нами з: 18.11.14
Востаннє: 15.08.19
Повідомлень: 152

2018-11-25 03:08  
Край Коштовних каменів / Houseki no Kuni (Серія 3 з 12) (2017) 720p Ukr/Jap | Sub Ukr

Край Коштовних каменів / Houseki no Kuni (Серія 3 з 12) (2017) 720p Ukr/Jap | Sub Ukr
Альтернативний постер


Жанр: пригоди, фентезі, сейнен
Країна: Японія



7.85 ((879) голосів)

Кінокомпанія: Orange
Режисер: Кьоґоку Такахіко
Ролі озвучують: Куросава Томойо, Ісе Марія, Кайано Ай, Камацу Мікако, Сакура Аяне, Парк Ромі, Учіяма Юмі, Мінаґава Джунко, Такаґакі Аяхі, Куґімія Рі

Сюжет:
У загадковому майбутньому кристалічні організми під назвою Коштовні камені населяють світ, зруйнований шістьма метеоритами. Кожний камінь виконує свою роль у боротьбі з Місяцівнами - видом, який нападає на них, щоб розколоти їхні тіла і використати як коштовності.

Фосфофіліт, також відома як Фос, - юний та крихкий Коштовний камінь - мріє допомагати друзям у війні. Натомість їй через крихкість дають завдання укладати енциклопедію. Після того, як Фос з небажанням стала до роботи, вона зустрічає Кіновар - розумний Коштовний камінь, що патрулює відокремлений острів уночі через корозійну отруту, яку створює її тіло. Коли Фос побачила, яка нещасна Кіновар, Фосфофіліт вирішує віднайти підходящу для неї роль.

УВАГА! В роздачі присутні жіноча і чоловіча версії аудіо і сабів. Зроблено це через те, що персонажі не мають гендеру, як такого (вони ж камінці), тому було вирішено поекспериментувати.


Тривалість: 1 серія: 24:00 (цілком серій: 12)
Перелік серій
Епізод 01. Фосфофіліт
Епізод 02. Діамант
Епізод 03. Метаморфоза
Якість:
Відео:
кодек:
розмір кадру: 1280 х 720
бітрейт: 2 620 кб/с

Аудіо # 1:
мова: українська (жіноча версія)
переклад: двоголосий закадровий
кодек: 2.0
бітрейт: 192 кб/с

Аудіо # 2:
мова: українська (чоловіча версія)
переклад: двоголосий закадровий
кодек: 2.0
бітрейт: 192 кб/с

Аудіо # 3:
мова: японська
переклад: оригінал
кодек: 2.0
бітрейт: 192 кб/с6

Субтитри:
мова: українська (Написи)
тип: програмні (м'які)
формат: *.

Субтитри:
мова: українська (Повні. Жіноча версія)
тип: програмні (м'які)
формат: *.

Субтитри:
мова: українська (Повні. Чоловіча версія)
тип: програмні (м'які)
формат: *.

Переклад і субтитри: Костянтин Hitler і Ovdiyko
Лірика пісень: Enelira (MelodicVoiceStudio)
Текст читали: Gwean & Maslinka
Робота зі звуком: Gwean
Info
General
Unique ID : 194259027700994461867634561440538742752 (0x9224ED8708702B9E9560302EB344CFE0)
Complete name : E:\ФанДаб\1Українізація\1Край коштовних каменів\0\[Sub by Ovdiyko & Hitler] Houseki no Kuni 01. Фосфофіліт [Dub by Gwean & Maslinka] (BD 720p ААС).
Format :
Format version : Version 4 / Version 2
File size : 515 MiB
Duration : 24 min 3 s
Overall bit rate : 2 995 kb/s
Encoded date : UTC 2018-11-24 22:41:26
Writing application : v7.0.0 ('Where We Going') 32bit built on Jun 9 2014 15:08:34
Writing library : libebml v1.3.0 + v1.4.1
Cover : Yes
Attachments : arial.ttf / calibrib.ttf / calibrii.ttf / calibriz.ttf / GARAIT.TTF / cover.jpg

Video
ID : 1
Format : AVC
Format/Info : Advanced Video Codec
Format profile : High [email protected]
Format settings : CABAC / 6 Ref Frames
Format settings, CABAC : Yes
Format settings, ReFrames : 6 frames
Codec ID : V_MPEG4/ISO/AVC
Duration : 24 min 2 s
Bit rate : 2 620 kb/s
Width : 1 280 pixels
Height : 720 pixels
Display aspect ratio : 16:9
Frame rate mode : Constant
Frame rate : 23.976 (24000/1001) FPS
Color space : YUV
Chroma subsampling : 4:2:0
Bit depth : 10 bits
Scan type : Progressive
Bits/(Pixel*Frame) : 0.119
Stream size : 450 MiB (87%)
Title : 01
Writing library : core 148 r2638 7599210
Encoding settings : cabac=1 / ref=6 / deblock=1:-1:-1 / analyse=0x3:0x133 / me=umh / subme=9 / psy=1 / psy_rd=0.30:0.00 / mixed_ref=1 / me_range=32 / chroma_me=1 / trellis=2 / 8x8dct=1 / cqm=0 / deadzone=21,11 / fast_pskip=0 / chroma_qp_offset=-2 / threads=12 / lookahead_threads=1 / sliced_threads=0 / nr=0 / decimate=1 / interlaced=0 / bluray_compat=0 / constrained_intra=0 / bframes=5 / b_pyramid=2 / b_adapt=2 / b_bias=0 / direct=1 / weightb=1 / open_gop=0 / weightp=2 / keyint=250 / keyint_min=23 / scenecut=40 / intra_refresh=0 / rc_lookahead=50 / rc=crf / mbtree=1 / crf=18.0 / qcomp=0.60 / qpmin=0 / qpmax=81 / qpstep=4 / ip_ratio=1.40 / aq=1:1.00
Language : Japanese
Default : Yes
Forced : Yes

Audio #1
ID : 2
Format : LC
Format/Info : Advanced Audio Codec Low Complexity
Codec ID : A_AAC-2
Duration : 24 min 3 s
Bit rate : 192 kb/s
Channel(s) : 2 channels
Channel layout : L R
Sampling rate : 48.0 kHz
Frame rate : 46.875 FPS (1024 SPF)
Compression mode : Lossy
Stream size : 33.0 MiB (6%)
Title : DVO від Gwean & Maslinka
Language : Ukrainian
Default : Yes
Forced : Yes

Audio #2
ID : 3
Format : LC
Format/Info : Advanced Audio Codec Low Complexity
Codec ID : A_AAC-2
Duration : 24 min 2 s
Bit rate : 162 kb/s
Channel(s) : 2 channels
Channel layout : L R
Sampling rate : 48.0 kHz
Frame rate : 46.875 FPS (1024 SPF)
Compression mode : Lossy
Stream size : 27.8 MiB (5%)
Title : оригнінальна доріжка
Language : Japanese
Default : No
Forced : No

Text #1
ID : 4
Format :
Codec ID : S_TEXT/
Codec ID/Info : Advanced Sub Station Alpha
Duration : 23 min 30 s
Bit rate : 6 b/s
Count of elements : 13
Compression mode : Lossless
Stream size : 1.17 KiB (0%)
Title : написи від Овдійко (Mitsuruki) та Костянтин Hitler
Language : Ukrainian
Default : Yes
Forced : Yes

Text #2
ID : 5
Format :
Codec ID : S_TEXT/
Codec ID/Info : Advanced Sub Station Alpha
Duration : 23 min 31 s
Bit rate : 169 b/s
Count of elements : 367
Compression mode : Lossless
Stream size : 29.2 KiB (0%)
Title : повні від Овдійко (Mitsuruki) та Костянтин Hitler
Language : Ukrainian
Default : No
Forced : No
Скріншоти



Джерело: і
Постер: Otaku-First і Лунсар
Особиста оцінка: 10 - без зайвих вагань рекомендую всім!

Увага! Торрент оновлено. Додану 3-тю серію.


Авторський реліз (завантажувати можна без реєстрації)
 Трекер:    Зареєстрований   

Завантажити / скачати аніме українською



відео для новачків



 Зареєстрований:   2019-02-25 01:07
 Розмір:   1.39 GB 
 Оцінка аніме:   9.8/10 (Голосів: 5)
   
Konstantin_Exorcist 
Забанено
Забанено


З нами з: 18.11.14
Востаннє: 15.08.19
Повідомлень: 152

2019-02-25 01:07  
Увага! Торрент оновлено. Додану 3-тю серію.

Ваш часовий пояс: GMT + 2 Години

Нова тема   Відповісти