Чому чоловіки ніколи не слухають, а жінки не вміють паркуватися? / Why Men Don't Listen and Women Can't Read Maps / Warum Männer nicht zuhören und Frauen schlecht einparken (2007) 720p Ukr/Ger

Нові коментарі

Нова тема   Відповісти
Автор Повідомлення
Arch Enemy 
VIP


З нами з: 30.08.12
Востаннє: 19.08.19
Повідомлень: 1689

2018-11-24 21:20  
Чому чоловіки ніколи не слухають, а жінки не вміють паркуватися? / Why Men Don't Listen and Women Can't Read Maps / Warum Männer nicht zuhören und Frauen schlecht einparken (2007) 720p Ukr/Ger



Жанр: освітній, мелодрама, комедія
Країна: Німеччина



Кінокомпанія: Constantin Film, Delphi Filmverleih Produktion, Filmfonds Wien
Режисер: Леандер Хуасман / Leander Haußmann
Актори: Бенно Фюрманн / Benno Fürmann, Джесіка Шварц / Jessica Schwarz, Маттіас Мачке / Matthias Matschke та інші.

Сюжет:
Невдало припаркувавши машину, Катрін зачіпає кабріолет Яна. Між ними спалахує словесна баталія. Кинувши чоловікові листок з номером страховки, жінка йде геть. У чоловікові прокидається інстинкт мисливця: він не може відпустити «жертву», не познайомившись із нею. Ян знаходить Катрін і отримує її домашню адресу. Незабаром вони починають жити разом. Ось тут і виникає глибока прірва, яка розділяє таких різних істот, як чоловік і жінка. І, схоже, самою природою зумовлено, що вони не можуть співіснувати в гармонії...

Тривалість: 01:39:28
Якість: 720p

Відео:
кодек:
розмір кадру: 1280x544
бітрейт: 2594 кб/с
контейнер:

Аудіо # 1:
мова: українська
озвучення: двоголосе закадрове
кодек: 5.1
бітрейт: 576 кб/с

Аудіо # 2:
мова: німецька
переклад:оригінал
кодек: 5.1
бітрейт: 275 кб/с
Info
General
Unique ID : 246883737199752409372276840148449932427 (0xB9BC1406967FE743EC5E1C7766DCB48B)
Complete name : E:\Films\Warum.Manner.nicht.zuhoren.und.Frauen.schlecht.einparken.(2007).HDTV.720p.
Format :
Format version : Version 4 / Version 2
File size : 2.40 GiB
Duration : 1 h 39 min
Overall bit rate : 3 458 kb/s
Movie name : Warum Männer nicht zuhören und Frauen schlecht einparken (2007) AniUA
Encoded date : UTC 2018-12-15 16:39:06
Writing application : v26.0.0 ('In The Game') 64-bit
Writing library : libebml v1.3.6 + v1.4.9

Video
ID : 1
Format : AVC
Format/Info : Advanced Video Codec
Format profile : [email protected]
Format settings : CABAC / 12 Ref Frames
Format settings, CABAC : Yes
Format settings, ReFrames : 12 frames
Codec ID : V_MPEG4/ISO/AVC
Duration : 1 h 39 min
Bit rate : 2 594 kb/s
Width : 1 280 pixels
Height : 544 pixels
Display aspect ratio : 2.35:1
Frame rate mode : Constant
Frame rate : 25.000 FPS
Color space : YUV
Chroma subsampling : 4:2:0
Bit depth : 8 bits
Scan type : Progressive
Bits/(Pixel*Frame) : 0.149
Stream size : 1.80 GiB (75%)
Title : Warum Männer nicht zuhören und Frauen schlecht einparken
Writing library : core 115 r1947 b5a8ad7
Encoding settings : cabac=1 / ref=12 / deblock=1:-1:-1 / analyse=0x3:0x133 / me=tesa / subme=10 / psy=1 / psy_rd=1.00:0.15 / mixed_ref=1 / me_range=64 / chroma_me=1 / trellis=2 / 8x8dct=1 / cqm=0 / deadzone=21,11 / fast_pskip=0 / chroma_qp_offset=-3 / threads=6 / sliced_threads=0 / nr=0 / decimate=1 / interlaced=0 / bluray_compat=0 / constrained_intra=0 / bframes=10 / b_pyramid=2 / b_adapt=2 / b_bias=0 / direct=3 / weightb=1 / open_gop=0 / weightp=2 / keyint=250 / keyint_min=25 / scenecut=40 / intra_refresh=0 / rc_lookahead=250 / rc=2pass / mbtree=1 / bitrate=2594 / ratetol=1.0 / qcomp=0.60 / qpmin=0 / qpmax=69 / qpstep=4 / cplxblur=20.0 / qblur=0.5 / ip_ratio=1.40 / aq=1:1.00 / zones=0,1140,b=0.66/143556,149211,b=0.66
Language : German
Default : Yes
Forced : Yes
Color range : Limited
Color primaries : BT.709
Transfer characteristics : BT.709
Matrix coefficients : BT.709

Audio #1
ID : 2
Format : LC
Format/Info : Advanced Audio Codec Low Complexity
Codec ID : A_AAC-2
Duration : 1 h 39 min
Bit rate : 576 kb/s
Channel(s) : 6 channels
Channel layout : C L R Ls Rs LFE
Sampling rate : 48.0 kHz
Frame rate : 46.875 FPS (1024 SPF)
Compression mode : Lossy
Delay relative to video : 9 ms
Stream size : 418 MiB (17%)
Title : AniUA DVO
Language : Ukrainian
Default : Yes
Forced : Yes

Audio #2
ID : 3
Format : LC
Format/Info : Advanced Audio Codec Low Complexity
Codec ID : A_AAC-2
Duration : 1 h 39 min
Bit rate : 275 kb/s
Channel(s) : 6 channels
Channel layout : C L R Ls Rs LFE
Sampling rate : 48.0 kHz
Frame rate : 46.875 FPS (1024 SPF)
Compression mode : Lossy
Stream size : 195 MiB (8%)
Title : Original
Language : German
Default : No
Forced : No
Скріншоти


Озвучено за фінансової підтримки NemoInFire


Джерело озвучення та релізу: AniUA


Авторський реліз (завантажувати можна без реєстрації)
 Трекер:    Зареєстрований   

Завантажити / скачати фільм українською



відео для новачків



 Зареєстрований:   2018-12-15 20:05
 Розмір:   2.4 GB 
 Оцінка фільму:   10/10 (Голосів: 12)
   
bot 
робот


З нами з: 30.09.07
Востаннє: 26.05.05
Повідомлень: 21780

2018-12-15 20:05  
Тему перенесено з Анонси релізів до форуму Фільми в HD


Arch Enemy

EvGaS 
Відео Гуртом - субтитрування
Відео Гуртом - субтитрування


З нами з: 27.02.12
Востаннє: 31.07.19
Повідомлень: 5674

2018-12-16 05:41  
Мабуть наступними у вас спитають якихось Мурах у штанях чи Мадхен-Мадхен. Wide grin
Arch Enemy 
VIP


З нами з: 30.08.12
Востаннє: 19.08.19
Повідомлень: 1689

2018-12-16 12:31  
EvGaS написано:
Мабуть наступними у вас спитають якихось Мурах у штанях чи Мадхен-Мадхен.

Головне, щоб не таке, за котре забанити можуть)))

Ваш часовий пояс: GMT + 2 Години

Нова тема   Відповісти