Запасний План / The Back-up Plan (2010) AVC 2xUkr/Eng | Sub Eng

Нові коментарі

Нова тема   Відповісти
Автор Повідомлення
staf777 
Відео Гуртом - підтримка та поширення
Відео Гуртом - підтримка та поширення


З нами з: 16.11.16
Востаннє: 15.12.19
Повідомлень: 3071

2018-11-24 19:45  
Запасний План / The Back-up Plan (2010) AVC 2xUkr/Eng | Sub Eng

Запасний План / The Back-up Plan (2010) AVC 2xUkr/Eng | Sub Eng


Жанр: романтична комедія
Країна: США



Кінокомпанія: CBS Films
Режисер: Алан Пол
Актори: Дженніфер Лопез, Алекс О `Лахлан, Міхаелла Уоткінс, Ерік Крістіан Олсен, Ентоні Андерсон, Норін ДеВулф, Мелісса МакКарті, Том Бослі, Денніл Харріс

Сюжет:
Кожній жінці за тридцять, що мріє стати матір'ю, бажано мати запасний план, і в самотньої Зої такий план був. Зневірившись зустріти коханого, вона вирішила вдатися до делікатної процедури штучного запліднення. І того ж дня, коли тест на вагітність виявився позитивним, вона зустріла Стена. Але як розповісти йому про свій "цікавий стан" і не сполохати почуттів, що тільки-но почали зароджуватись.


Тривалість: 01:44:14
Якість: AVC
Відео:
кодек:
розмір кадру: 1024x432
бітрейт: 1653 кб/с

Аудіо # 1:
мова: українська
переклад: професійний дубльований
кодек: 5.1
бітрейт: 448 кб/с

Аудіо # 2:
мова: українська
переклад: багатоголосий закадровий
кодек: 2.0
бітрейт: 192 кб/с

Аудіо # 3:
мова: англійська
переклад: оригінал
кодек: 5.1
бітрейт: 448 кб/с

Субтитри:
мова: англійська
тип: програмні (м'які)
формат: *.srt
Info
General
Unique ID : 288632774020499428963391976465362986606 (0xD924A6763E845481AF44DE040DF2266E)
Complete name : S:\Фільми AVC\Комедія\The Back-up Plan (2010) AVC [2xUkr] [Eng] [Hurtom] .
Format :
Format version : Version 4 / Version 2
File size : 2.00 GiB
Duration : 1 h 44 min
Overall bit rate : 2 741 kb/s
Movie name : The Back-up Plan (2010) AVC [2xUkr] [Eng] [Hurtom]
Encoded date : UTC 2018-11-25 15:18:13
Writing application : v24.0.0 ('Beyond The Pale') 64-bit
Writing library : libebml v1.3.6 + v1.4.9
Cover : Yes
Attachments : cover.jpg

Video
ID : 1
Format : AVC
Format/Info : Advanced Video Codec
Format profile : [email protected]
Format settings : CABAC / 9 Ref Frames
Format settings, CABAC : Yes
Format settings, ReFrames : 9 frames
Codec ID : V_MPEG4/ISO/AVC
Duration : 1 h 44 min
Bit rate : 1 653 kb/s
Width : 1 024 pixels
Height : 432 pixels
Display aspect ratio : 2.40:1
Frame rate mode : Constant
Frame rate : 23.976 (24000/1001) FPS
Color space : YUV
Chroma subsampling : 4:2:0
Bit depth : 8 bits
Scan type : Progressive
Bits/(Pixel*Frame) : 0.156
Stream size : 1.20 GiB (60%)
Writing library : core 92 r1510 33d382a
Encoding settings : cabac=1 / ref=9 / deblock=1:-1:-1 / analyse=0x3:0x111 / me=umh / subme=7 / psy=1 / psy_rd=1.00:0.00 / mixed_ref=1 / me_range=16 / chroma_me=1 / trellis=2 / 8x8dct=1 / cqm=0 / deadzone=21,11 / fast_pskip=1 / chroma_qp_offset=-2 / threads=6 / sliced_threads=0 / nr=0 / decimate=1 / interlaced=0 / constrained_intra=0 / bframes=3 / b_pyramid=2 / b_adapt=2 / b_bias=0 / direct=3 / wpredb=1 / wpredp=2 / keyint=250 / keyint_min=25 / scenecut=40 / intra_refresh=0 / rc_lookahead=60 / rc=2pass / mbtree=1 / bitrate=1653 / ratetol=1.0 / qcomp=0.60 / qpmin=10 / qpmax=51 / qpstep=4 / cplxblur=20.0 / qblur=0.5 / ip_ratio=1.40 / aq=1:1.00
Default : Yes
Forced : No

Audio #1
ID : 2
Format : AC-3
Format/Info : Audio Coding 3
Codec ID : A_AC3
Duration : 1 h 44 min
Bit rate mode : Constant
Bit rate : 448 kb/s
Channel(s) : 6 channels
Channel positions : Front: L C R, Side: L R, LFE
Sampling rate : 48.0 kHz
Frame rate : 31.250 FPS (1536 SPF)
Bit depth : 16 bits
Compression mode : Lossy
Stream size : 334 MiB (16%)
Language : Ukrainian
Service kind : Complete Main
Default : Yes
Forced : Yes

Audio #2
ID : 3
Format : AC-3
Format/Info : Audio Coding 3
Codec ID : A_AC3
Duration : 1 h 44 min
Bit rate mode : Constant
Bit rate : 192 kb/s
Channel(s) : 2 channels
Channel positions : Front: L R
Sampling rate : 48.0 kHz
Frame rate : 31.250 FPS (1536 SPF)
Bit depth : 16 bits
Compression mode : Lossy
Stream size : 143 MiB (7%)
Title : [UKR-MVO-TET]
Language : Ukrainian
Service kind : Complete Main
Default : No
Forced : No

Audio #3
ID : 4
Format : AC-3
Format/Info : Audio Coding 3
Codec ID : A_AC3
Duration : 1 h 44 min
Bit rate mode : Constant
Bit rate : 448 kb/s
Channel(s) : 6 channels
Channel positions : Front: L C R, Side: L R, LFE
Sampling rate : 48.0 kHz
Frame rate : 31.250 FPS (1536 SPF)
Bit depth : 16 bits
Compression mode : Lossy
Stream size : 334 MiB (16%)
Language : English
Service kind : Complete Main
Default : No
Forced : No

Text
ID : 5
Format : UTF-8
Codec ID : S_TEXT/UTF8
Codec ID/Info : UTF-8 Plain Text
Duration : 1 h 42 min
Bit rate : 68 b/s
Count of elements : 1579
Stream size : 50.9 KiB (0%)
Language : English
Default : No
Forced : No
Скріншоти







Дякую пану bodia87 за доріжку від ТЕТ
Джерело: &
Особиста оцінка: 8 - мені сподобалося
Запасний План / The Back-up Plan (2010) AVC 2xUkr/Eng | Sub Eng Запасний План / The Back-up Plan (2010) AVC 2xUkr/Eng | Sub Eng


 Трекер:    Зареєстрований   

Завантажити / скачати фільм українською



відео для новачків



 Зареєстрований:   2018-11-25 17:28
 Розмір:   2 GB 
 Оцінка фільму:   8.7/10 (Голосів: 17)
   
Інші релізи
   Запасний План / The Back-up Plan (2010) 1080p 2xUkr/Eng | Sub Eng staf777  2 / 0   13.96 GB   2018-11-25 17:05 
   Запасний План / The Back-up Plan (2010) 720p Ukr/Eng | Sub Eng 11FrYkT  0 / 0   5.46 GB   2012-09-13 15:55 
   Запасний План / The Back-up Plan (2010) patriot2305  1 / 0   1.46 GB   2012-07-03 15:18 
   Запасний План / The Back-up Plan (2010) Ukr/Eng | Sub Eng karvai0  3 / 0   2.18 GB   2011-04-24 16:32 
bot 
робот


З нами з: 30.09.07
Востаннє: 26.05.05
Повідомлень: 22655

2018-11-24 20:21  
Тему перенесено з Анонси релізів до форуму Фільми


staf777

volodymyr_sav 
VIP


З нами з: 07.10.13
Востаннє: 12.12.19
Повідомлень: 1630

2018-11-25 15:22  
Кілька разів дивився цей фільм по ТБ, тільки називався він "План Б". Чудове романтичне кіно, акторська гра бездоганна
staf777 
Відео Гуртом - підтримка та поширення
Відео Гуртом - підтримка та поширення


З нами з: 16.11.16
Востаннє: 15.12.19
Повідомлень: 3071

2018-11-25 17:35  
Додав доріжку від 
Djohnnikey 
VIP


З нами з: 01.10.15
Востаннє: 15.12.19
Повідомлень: 281

2019-02-10 00:02  
Раніше дивився кіно по телевізору. У принципі, переглянув з задоволенням, і явних провалів у сценарії, акторській грі або чомусь ще немає... І все-таки фільм не фантастичний.
6 з 10.

Ваш часовий пояс: GMT + 2 Години

Нова тема   Відповісти