Вороги / Hostiles (2017) 1080p Ukr/Eng | Sub Eng

Нові коментарі

Нова тема   Відповісти
Автор Повідомлення
staf777 
Відео Гуртом - підтримка та поширення
Відео Гуртом - підтримка та поширення


З нами з: 16.11.16
Востаннє: 24.04.19
Повідомлень: 2284

2018-11-24 20:44  
Вороги / Hostiles (2017) 1080p Ukr/Eng | Sub Eng

Вороги / Hostiles (2017) 1080p Ukr/Eng | Sub Eng
Оригінальний постер:


Жанр: вестерн, драма
Країна: США



Кінокомпанія: Waypoint Entertainment
Режисер: Скотт Купер
Актори: Крістіан Бейл, Розамунд Пайк, Бен Фостер, Джессі Племонс, Стівен Ленг, Пол Андерсон, Пітер Муллан, Тімоті Шаламе, Білл Кемп, Вес Стьюді та інші

Сюжет:
Легендарний американський вояка погоджується супроводити вмираючого офіцера і його рідних по дорозі додому. Під час подорожі компанія знайомиться з молодою вдовою, сім'я якої загинула під час війни. Всі разом вони намагаються подолати небезпечні землі, де живуть племена Команчів.


Тривалість: 02:14:18
Якість: 1080p

Відео:
кодек:
розмір кадру: 1920x804
бітрейт: 11,5 Mб/с

Аудіо #1:
мова: українська
переклад: багатоголосий закадровий
кодек: 2.0 [stereo]
бітрейт: 192 кб/с

Інформація про озвучення
Переклад: Павла Голова
Режисер: Людмила Ардельян
Звукорежисер: Станіслав Ногін
Ролі озвучили: Роман Чорний, Олесь Гімбаржевський, Людмила Ардельян, Ігор Волков, Володимир Кокотунов, Максим Запісочний.



Аудіо # 2:
мова: англійська
переклад: оригінал
кодек: 5.1
бітрейт: 640 кб/с

Субтитри:
мова: англійська
тип: програмні (м'які)
формат: *.srt
Info
Код:
General
Unique ID                   : 141188725811658286168890050291437128985 (0x6A37F5A0D004F87BF9FE5C44D7B7CD19)
Complete name               : S:\Фільми в HD\Вестерн\Hostiles (2017) 1080p [UKR][ENG][Hurtom].
Format                      :
Format version              : Version 4 / Version 2
File size                   : 11.5 GiB
Duration                    : 2 h 14 min
Overall bit rate            : 12.3 Mb/s
Movie name                  : Hostiles (2017) 1080p [UKR][ENG][Hurtom]
Encoded date                : UTC 2018-11-24 18:19:22
Writing application         : v24.0.0 ('Beyond The Pale') 64-bit
Writing library             : libebml v1.3.6 + v1.4.9
Cover                       : Yes
Attachments                 : cover.jpg

Video
ID                          : 1
Format                      : AVC
Format/Info                 : Advanced Video Codec
Format profile              : [email protected]
Format settings             : CABAC / 4 Ref Frames
Format settings, CABAC      : Yes
Format settings, ReFrames   : 4 frames
Codec ID                    : V_MPEG4/ISO/AVC
Duration                    : 2 h 14 min
Bit rate                    : 11.5 Mb/s
Width                       : 1 920 pixels
Height                      : 804 pixels
Display aspect ratio        : 2.40:1
Frame rate mode             : Constant
Frame rate                  : 23.976 (24000/1001) FPS
Color space                 : YUV
Chroma subsampling          : 4:2:0
Bit depth                   : 8 bits
Scan type                   : Progressive
Bits/(Pixel*Frame)          : 0.309
Stream size                 : 10.7 GiB (93%)
Writing library             : core 155 r2867+74 66b5600 t_mod_Custom_2 [[email protected] X86_64]
Encoding settings           : cabac=1 / ref=4 / deblock=1:-3:-3 / analyse=0x3:0x113 / me=umh / subme=10 / psy=1 / fade_compensate=0.00 / psy_rd=0.90:0.10 / mixed_ref=1 / me_range=48 / chroma_me=1 / trellis=2 / 8x8dct=1 / cqm=0 / deadzone=21,11 / fast_pskip=0 / chroma_qp_offset=-2 / threads=12 / lookahead_threads=2 / sliced_threads=0 / nr=0 / decimate=1 / interlaced=0 / bluray_compat=0 / constrained_intra=0 / fgo=0 / bframes=8 / b_pyramid=2 / b_adapt=2 / b_bias=0 / direct=3 / weightb=1 / open_gop=0 / weightp=2 / keyint=250 / keyint_min=23 / scenecut=40 / intra_refresh=0 / rc_lookahead=40 / rc=crf / mbtree=0 / crf=19.0000 / qcomp=0.70 / qpmin=0:0:0 / qpmax=69:69:69 / qpstep=4 / vbv_maxrate=35000 / vbv_bufsize=35000 / crf_max=0.0 / nal_hrd=none / filler=0 / ip_ratio=1.40 / pb_ratio=1.30 / aq=3:0.90 / aq-sensitivity=10.00 / aq-factor=1.00:1.00:1.00 / aq2=0 / aq3=2:[0.50:0.50]:[0.50:0.50]:[0.50:0.50]:[0.50:0.50] / aq3-sensitivity=10.00 / aq3-factor=[1.00:1.00]:[1.00:1.00]:[1.00:1.00] / aq3-boundary=192:64:24
Language                    : English
Default                     : Yes
Forced                      : No
Color range                 : Limited
Matrix coefficients         : BT.709

Audio #1
ID                          : 2
Format                      : AC-3
Format/Info                 : Audio Coding 3
Codec ID                    : A_AC3
Duration                    : 2 h 14 min
Bit rate mode               : Constant
Bit rate                    : 192 kb/s
Channel(s)                  : 2 channels
Channel positions           : Front: L R
Sampling rate               : 48.0 kHz
Frame rate                  : 31.250 FPS (1536 SPF)
Bit depth                   : 16 bits
Compression mode            : Lossy
Stream size                 : 184 MiB (2%)
Title                       : [UA-MVO]
Language                    : Ukrainian
Service kind                : Complete Main
Default                     : Yes
Forced                      : Yes

Audio #2
ID                          : 3
Format                      : AC-3
Format/Info                 : Audio Coding 3
Codec ID                    : A_AC3
Duration                    : 2 h 14 min
Bit rate mode               : Constant
Bit rate                    : 640 kb/s
Channel(s)                  : 6 channels
Channel positions           : Front: L C R, Side: L R, LFE
Sampling rate               : 48.0 kHz
Frame rate                  : 31.250 FPS (1536 SPF)
Bit depth                   : 16 bits
Compression mode            : Lossy
Stream size                 : 615 MiB (5%)
Title                       : Original
Language                    : English
Service kind                : Complete Main
Default                     : No
Forced                      : No

Text
ID                          : 4
Format                      : UTF-8
Codec ID                    : S_TEXT/UTF8
Codec ID/Info               : UTF-8 Plain Text
Duration                    : 2 h 3 min
Bit rate                    : 24 b/s
Count of elements           : 739
Stream size                 : 21.9 KiB (0%)
Title                       : Full
Language                    : English
Default                     : No
Forced                      : No

Menu
00:00:00.000                : en:00:00:00.000
00:08:18.540                : en:00:08:18.540
00:20:32.064                : en:00:20:32.064
00:25:28.819                : en:00:25:28.819
00:34:48.336                : en:00:34:48.336
00:40:23.546                : en:00:40:23.546
00:51:40.597                : en:00:51:40.597
01:00:18.615                : en:01:00:18.615
01:08:17.176                : en:01:08:17.176
01:14:52.071                : en:01:14:52.071
01:25:29.249                : en:01:25:29.249
01:34:35.461                : en:01:34:35.461
01:43:05.513                : en:01:43:05.513
01:50:45.973                : en:01:50:45.973
01:54:10.677                : en:01:54:10.677
02:05:21.806                : en:02:05:21.806







Подяка пану NemoInFire за українську доріжку та пану Ham_R за постер
Джерело: &
Особиста оцінка: 8 - мені сподобалося
Вороги / Hostiles (2017) 1080p Ukr/Eng | Sub Eng Вороги / Hostiles (2017) 1080p Ukr/Eng | Sub Eng


 Трекер:    Зареєстрований   

Завантажити / скачати фільм українською



відео для новачків



 Зареєстрований:   2018-11-24 21:51
 Розмір:   11.52 GB 
 Оцінка фільму:   9.1/10 (Голосів: 28)
   
Інші релізи
   Вороги / Hostiles (2017) AVC Ukr/Eng | Sub Eng 11FrYkT  22 / 0   2.36 GB   2019-02-03 11:07 
   Вороги / Hostiles (2017) Remux 1080p Ukr/Eng | Sub Eng kryk-v.ya.  8 / 0   33.65 GB   2018-11-27 11:32 
   Вороги / Hostiles (2017) 720p Ukr/Eng | Sub Eng TPEM  22 / 0   4.9 GB   2018-11-24 18:30 
   Вороги / Hostiles (2017) Electroz  44 / 0   1.46 GB   2018-11-24 00:48 
eukuk 
Новенький


З нами з: 15.03.13
Востаннє: 21.04.19
Повідомлень: 16

2018-11-26 10:54  
Хороший фільм. Трохи передбачуваний, але добра операторська робота і гра акторів
poolvetrum 
VIP


З нами з: 01.06.14
Востаннє: 24.04.19
Повідомлень: 276

2018-11-27 02:12  
Зразковий сучасний вестерн. Без голлівудщини і пустомельства. Образ і гра Бейла просто родзинка до фільму. Як і "Кістяний томагавк" відношу до найкращих вестернів останніх років.
ppk21 
Свій


З нами з: 28.02.09
Востаннє: 24.04.19
Повідомлень: 145

2018-11-28 03:22  
Так собі вестерн. Нормальний, на фоні нинішнього голівудського трешу по коміксам навіть непоганий. Але не більше. Надто багато сучасної політкоректності (негр в американській кавалеріїї у кінці 19-го століття - це майже фантастика) та комплексу історичної вини "блідолицих" перед "червоношкірими братами". Нудно.

Додано через 7 хвилин 9 секунд:

А взагалі, "Вороги" чимось схожі на "Рейд Ульзани" (1972) з Бертом Ланкастером, та "Останній рейд" (2003) з Кейт Бланшетт та Томмі Лі Джонсом. Роуд-муві у сетингу Дикого Заходу. От їх раджу подивитися поціновувачам жанру. Вони круті.

Siegfried 
VIP


З нами з: 01.11.11
Востаннє: 23.04.19
Повідомлень: 251

2018-11-30 22:21  
Дуже потужний фільм.

До вестерну його можна віднести з великим натягом.

Це класична трагедія в декораціях США кінця 19-го століття.

Чудовий фільм для головного мозку.

Некваплива розповідь, але тут інакше було б недоречно, а під кінець хочеться, щоб вона іще продовжувалася.

Без ляпів, нажаль, теж не обійшлося. Серед найбільших вже згаданий вище негр-кавалерист. Але на загальне враження вони впливають мінімально.

Чесно кажучи, на початку фільму взагалі не сприймав Бейла в цій ролі, постійно згадував його Бетменом, але до кінця фільму він повністю реабілітувався. Як на мене, то його гра тут не гірше "Американського психопата", але з поправкою на трагічність ролі та сюжету.

Роадмуві ? Так, але на дуже високому рівні.

Однозначно раджу для серйозного і аналітичного перегляду.

8 з 10.

Сокіл 
Новенький


З нами з: 14.03.12
Востаннє: 23.04.19
Повідомлень: 8

2019-02-03 18:29  
Фільм класний, чудова гра акторів. Тільки опис ніби не від цього фільму.
vovang6 
Поважний учасник


З нами з: 27.08.12
Востаннє: 24.04.19
Повідомлень: 194

2019-04-04 07:32  
Фільм просто фантастичний! Мені особисто дуже зайшов. Гра акторів на висоті, сюжет і музика на рівні. 9/10.
Ваш часовий пояс: GMT + 2 Години

Нова тема   Відповісти