Вороги / Hostiles (2017) 720p Ukr/Eng | Sub Eng

Нові коментарі

Нова тема   Відповісти
Автор Повідомлення
TPEM 
Відео Гуртом - фільмокрай
Відео Гуртом - фільмокрай


З нами з: 30.01.09
Востаннє: 13.11.19
Повідомлень: 410

2018-11-24 17:30  
Вороги / Hostiles (2017) 720p Ukr/Eng | Sub Eng

Вороги / Hostiles (2017) 720p Ukr/Eng | Sub Eng
Оригінальний постер:



Жанр: вестерн, драма
Країна: США





Кінокомпанія: Waypoint Entertainment
Режисер: Скотт Купер
Актори: Крістіан Бейл, Розамунд Пайк, Бен Фостер, Джессі Племонс, Стівен Ленг, Пол Андерсон, Пітер Муллан, Тімоті Шаламе, Білл Кемп, Вес Стьюді

Сюжет:
Легендарний американський вояка отримує наказ супроводжувати вмираючого індіанського вождя і його рідних у дорозі додому. Під час подорожі компанія знайомиться з молодою вдовою, сім'я якої загинула від рук команчів. Усі разом вони намагаються подолати небезпечні землі Дикого Заходу.


Тривалість: 02:14:18
Якість:
Відео:
кодек: H.263
розмір кадру: 1280 х 536
бітрейт: 4 284 кб/с

Аудіо:
мова: українська
переклад: багатоголосий закадровий
кодек: 2.0
бітрейт: 192 кб/с

Аудіо:
мова: англійська
переклад: оригінал
кодек: 5.1
бітрейт: 640 кб/с

Субтитри:
мова: англійська
тип: програмні (м'які)
формат: *.srt
Info
General
Unique ID : 11569729786266049375209113533736131673 (0x8B43FB8329C8F88B2B42894522D9C59)
Complete name : E:\uTorrent\Hostiles (2017) 720p [Ukr,Eng] [Hurtom].
Format :
Format version : Version 4 / Version 2
File size : 4.90 GiB
Duration : 2h 14mn
Overall bit rate : 5 220 Kbps
Movie name : Hostiles (2017)
Encoded date : UTC 2018-11-24 13:52:07
Writing application : v28.2.0 ('The Awakening') 64-bit
Writing library : libebml v1.3.6 + v1.4.9
Attachements : cover.jpg
DURATION : 02:14:00.192000000
NUMBER_OF_FRAMES : 251256
NUMBER_OF_BYTES : 192964608
_STATISTICS_WRITING_APP : v28.2.0 ('The Awakening') 64-bit
_STATISTICS_WRITING_DATE_UT : 2018-11-24 13:52:07
_STATISTICS_TAGS : BPS DURATION NUMBER_OF_FRAMES NUMBER_OF_BYTES

Video
ID : 1
Format : AVC
Format/Info : Advanced Video Codec
Format profile : [email protected]
Format settings, CABAC : Yes
Format settings, ReFrames : 8 frames
Codec ID : V_MPEG4/ISO/AVC
Duration : 2h 14mn
Bit rate : 4 284 Kbps
Width : 1 280 pixels
Height : 536 pixels
Display aspect ratio : 2.40:1
Frame rate mode : Constant
Frame rate : 23.976 fps
Color space : YUV
Chroma subsampling : 4:2:0
Bit depth : 8 bits
Scan type : Progressive
Bits/(Pixel*Frame) : 0.260
Stream size : 4.02 GiB (82%)
Title : Hostiles (2017)
Writing library : core 155 r2901 7d0ff22
Encoding settings : cabac=1 / ref=8 / deblock=1:-3:-3 / analyse=0x3:0x133 / me=umh / subme=11 / psy=1 / psy_rd=1.00:0.15 / mixed_ref=1 / me_range=24 / chroma_me=1 / trellis=2 / 8x8dct=1 / cqm=0 / deadzone=21,11 / fast_pskip=0 / chroma_qp_offset=-3 / threads=8 / lookahead_threads=1 / sliced_threads=0 / nr=0 / decimate=1 / interlaced=0 / bluray_compat=0 / constrained_intra=0 / bframes=9 / b_pyramid=2 / b_adapt=2 / b_bias=0 / direct=1 / weightb=1 / open_gop=0 / weightp=2 / keyint=240 / keyint_min=23 / scenecut=40 / intra_refresh=0 / rc_lookahead=40 / rc=crf / mbtree=0 / crf=16.2 / qcomp=0.60 / qpmin=0 / qpmax=69 / qpstep=4 / vbv_maxrate=50000 / vbv_bufsize=62500 / crf_max=0.0 / nal_hrd=none / filler=0 / ip_ratio=1.40 / pb_ratio=1.30 / aq=2:0.80
Language : English
Default : Yes
Forced : No

Audio #1
ID : 2
Format : AC-3
Format/Info : Audio Coding 3
Mode extension : CM (complete main)
Format settings, Endianness : Big
Codec ID : A_AC3
Duration : 2h 14mn
Bit rate mode : Constant
Bit rate : 192 Kbps
Channel(s) : 2 channels
Channel positions : Front: L R
Sampling rate : 48.0 KHz
Compression mode : Lossy
Stream size : 184 MiB (4%)
Title : MVO 2.0
Language : Ukrainian
Default : Yes
Forced : No

Audio #2
ID : 3
Format : AC-3
Format/Info : Audio Coding 3
Mode extension : CM (complete main)
Format settings, Endianness : Big
Codec ID : A_AC3
Duration : 2h 14mn
Bit rate mode : Constant
Bit rate : 640 Kbps
Channel(s) : 6 channels
Channel positions : Front: L C R, Side: L R, LFE
Sampling rate : 48.0 KHz
Compression mode : Lossy
Stream size : 615 MiB (12%)
Title : Original
Language : English
Default : No
Forced : No

Text
ID : 4
Format : UTF-8
Codec ID : S_TEXT/UTF8
Codec ID/Info : UTF-8 Plain Text
Title : full
Language : English
Default : No
Forced : No

Menu
00:00:00.000 : en:00:00:00.000
00:08:18.540 : en:00:08:18.540
00:20:32.064 : en:00:20:32.064
00:25:28.819 : en:00:25:28.819
00:34:48.336 : en:00:34:48.336
00:40:23.546 : en:00:40:23.546
00:51:40.597 : en:00:51:40.597
01:00:18.615 : en:01:00:18.615
01:08:17.176 : en:01:08:17.176
01:14:52.071 : en:01:14:52.071
01:25:29.249 : en:01:25:29.249
01:34:35.461 : en:01:34:35.461
01:43:05.513 : en:01:43:05.513
01:50:45.973 : en:01:50:45.973
01:54:10.677 : en:01:54:10.677
02:05:21.806 : en:02:05:21.806
Скріншоти





Слова подяки написано:
За українську доріжку - NemoInFire, за постер - Ham_R



Джерело:
Особиста оцінка: 8 - мені сподобалося


 Трекер:    Зареєстрований   

Завантажити / скачати фільм українською



відео для новачків



 Зареєстрований:   2018-11-24 17:30
 Розмір:   4.9 GB 
 Оцінка фільму:   8.9/10 (Голосів: 37)
   
Інші релізи
   Вороги / Hostiles (2017) AVC Ukr/Eng | Sub Eng 11FrYkT  10 / 0   2.36 GB   2019-02-03 10:07 
   Вороги / Hostiles (2017) Remux 1080p Ukr/Eng | Sub Eng kryk-v.ya.  6 / 0   33.65 GB   2018-11-27 10:32 
   Вороги / Hostiles (2017) 1080p Ukr/Eng | Sub Eng staf777  10 / 0   11.52 GB   2018-11-24 20:51 
   Вороги / Hostiles (2017) Electroz  26 / 0   1.46 GB   2018-11-23 23:48 
GlossaVK 
Свій


З нами з: 26.06.13
Востаннє: 14.11.19
Повідомлень: 69

2018-11-25 15:08  
фільм в стилі «Врятувати рядового Раяна» («Saving Private Ryan»), якщо вам зрозумілий мій сарказм... Дивитись варто...
waldi-hurtom 
VIP


З нами з: 07.10.12
Востаннє: 16.11.19
Повідомлень: 1042

2018-11-26 23:20  
Зоряний час вестернів минув. Після Клінта Іствуда можна не дивитися. Марнування часу.
ppk21 
Поважний учасник


З нами з: 28.02.09
Востаннє: 17.11.19
Повідомлень: 155

2018-11-27 02:20  
waldi-hurtom написано:
Зоряний час вестернів минув. Після Клінта Іствуда можна не дивитися.


Це велике перебільшення. Після Клінта Іствуда зняли купу гарних вестернів. Я не кажу вже про те, що більшість фільмів з Іствудом були лютим трешем (крім трилогії Леоне та "Непрощенного", звичайно). Тому він ні разу не орієнтир. Вестерн - це вічний жанр. Його завжди будуть знімати.

+380954897458 
VIP


З нами з: 02.06.17
Востаннє: 16.11.19
Повідомлень: 482

2018-11-27 18:50  
ppk21
І Вам не треба перебільшувати. Іствуд це абсолютна протилежність трешу. Або Ви, мабуть, мало дивилися Іствуда, або дивилися його не поглядом кіномана. А в іншому Ви маєте рацію: окрім нього є сила-силенна хороших вестернів.

ppk21 
Поважний учасник


З нами з: 28.02.09
Востаннє: 17.11.19
Повідомлень: 155

2018-11-28 02:08  
+380954897458
Не зовсім протилежність. Після успіху "доларової трилогії" Іствуд засвітився у купі абсолютно прохідних вестернів та бойовиків. Назви яких я зараз навіть не згадаю (хоча усі їх дивися). А, згадав один - "Два мула для сестри Сари". Я теж поважаю Іствуда - головним чином як режисера. Але робити з нього ікону не варто. Тим більше - оголошувати його якимось Рубіконом, після якого вестерн як жанр закінчився назавжди.

myru22 
Свій


З нами з: 27.11.16
Востаннє: 16.11.19
Повідомлень: 65

2018-11-28 16:51  
ppk21
Одне слово - Непрощенний.

+380954897458 
VIP


З нами з: 02.06.17
Востаннє: 16.11.19
Повідомлень: 482

2018-11-28 21:07  
ppk21
Ви їх усі дивилися? Я нарахував 46 акторських робіт Клінта, усі, де він грав головні ролі, починаючи з фільмів Леоне. І Ви їх усі передивилися? Я їх передивився усі свого часу, і прохідних фільмів, які мені особисто не сподобалися, там можна перерахувати на пальцях однієї руки. І якщо всі ті фільми Вам не сподобалися, значить Ви їх дивилися не під тим кутом зору, значить то не Ваше. Іствуд давно вже ікона і знак якості, справжня легенда, і це загальновідома істина.

romaxa11 
Новенький


З нами з: 05.09.15
Востаннє: 17.11.19
Повідомлень: 20

2018-11-28 23:13  
ballad of buster scruggs Коенів сподабалась)
Wensun 
Свій


З нами з: 20.01.09
Востаннє: 17.11.19
Повідомлень: 141

2018-11-29 00:16  
Дуже сильний фільм, 10/10, не знаю як там академія, а я би Бейлу зразу Оскара дав.

Додано через 2 хвилини 40 секунд:

в описі помилки ! 1. не офіцера, а вождя Індіанця, 2. сімя загинула не під час війни а від Команчів. 3. йдуть вони через небезпечні землі ! а не тіки через Команчі.

TPEM 
Відео Гуртом - фільмокрай
Відео Гуртом - фільмокрай


З нами з: 30.01.09
Востаннє: 13.11.19
Повідомлень: 410

2018-12-01 23:29  
Wensun
Спасибі за коментар. Виправив Wink (2)

INTER-FAN 
Свій


З нами з: 25.01.10
Востаннє: 16.11.19
Повідомлень: 85

2018-12-04 23:39  
Жирний фільм, важкий - так. Але класний. Містер Бейл крутий актор. Англійською якщо дивитися, то стає зрозмілим, що йогорозкішні вуса і борода це лише вершина айсберга у тому образі, який він створив для свого героя. Особливо манера говорити. Це було круто. Браво!
- Kidder?
- Yes, sir?
- Unchain `em.
- Sir?
- You heard me. If they put foot wrong, you put a bullet in `em.

Keltukha 
Новенький


З нами з: 18.03.17
Востаннє: 03.11.19
Повідомлень: 9

2019-02-03 16:19  
INTER-FAN написано:
Жирний фільм, важкий - так. Але класний. Містер Бейл крутий актор.

Exactly! I absolutely agree with your every single word here, man!

Сподіваюся, що Крістіан, яко недооціненний актор на тепер, таки здобуде гідне визнання, згодом. Великий майстер втілення!

І так, особливо такі фільми, треба дивитися по-можливості (субтитри в допомогу) з ориґінальною зв. доріжкою. Манера, інтонації, акценти, щодо виразності й багатозначності анлгійської й годі говорити, - власне роблять фільм таким емоційним і вражаючим.

Highly recommended!

INTER-FAN 
Свій


З нами з: 25.01.10
Востаннє: 16.11.19
Повідомлень: 85

2019-04-18 20:32  
Keltukha
+++

Ваш часовий пояс: GMT + 2 Години

Нова тема   Відповісти