Дві матері (Сезон 1) (2018) 480p

Нові коментарі

Нова тема   Відповісти
Останній раз роздавалося MasterYura (2020-02-28)
Автор Повідомлення
MasterYura 
Відео Гуртом - фільмокрай
Відео Гуртом - фільмокрай


З нами з: 21.11.09
Востаннє: 03.12.20
Повідомлень: 1106

2018-11-24 00:19  
Дві матері (Сезон 1) (2018) 480p


Дві матері (Сезон 1) (2018) 480p


Жанр: Драма
Країна: Україна

Кінокомпанія: 1+1 Продакшн
Актори: Ольга Атанасова-Лук'яненко, Зоряна Марченко, Михайло Пшеничний, Кирило Дицевич, Ольга Сумська, Ірма Вітовська-Ванца, Віталіна Біблів, Микола Боклан, Анатолій Гнатюк

Сюжет:
«Дві матері» - новий цікавий український серіал на 1+1 онлайн. Неймовірна історія починається тоді, коли наречений Марти (і за сумісництвом – брат Зої) гине через нещасний випадок. Марта втрачає їхню дитину, а Зоя звинувачує дівчину у смерті брата.

Конфлікт набирає нових обертів, коли через деякий час дві жінки знову виявляються зв’язані разом через одного чоловіка – Андрія Завадського, який унаслідував цілу імперію ресторанів. У всій цій історії на телеканалі 1+1 онлайн опиняється замішана дитина, яка змушена рости у атмосфері постійного протистояння двох жінок.

Чим скінчиться ця історія? Хто в кінцевому результаті одержить перемогу? Дивіться телеканал 1+1 онлайн, та не пропустіть жодної події цієї захопливої та драматичної історії!


Тривалість: 1 серія: 45:00 (цілком серій: 24)
Якість:
Відео:
кодек:
розмір кадру: 854x480
бітрейт: ~380 кб/с

Аудіо:
мова: українська
переклад: оригінал
бітрейт: 128 кб/с
кодек: mp4a стерео 2.0
Info

General
Complete name
Format : MPEG-4
Format profile : Base Media
Codec ID : isom (isom/iso2/avc1/mp41)
File size : 177 MiB
Duration : 47 min 22 s
Overall bit rate : 522 kb/s
Writing application : Lavf56.40.101

Video
ID : 1
Format : AVC
Format/Info : Advanced Video Codec
Format profile : [email protected]
Format settings : CABAC / 3 Ref Frames
Format settings, CABAC : Yes
Format settings, ReFrames : 3 frames
Codec ID : avc1
Codec ID/Info : Advanced Video Coding
Duration : 47 min 22 s
Duration_FirstFrame : -40 ms
Bit rate : 387 kb/s
Width : 854 pixels
Height : 480 pixels
Display aspect ratio : 16:9
Frame rate mode : Variable
Frame rate : 25.000 FPS
Minimum frame rate : 25.000 FPS
Maximum frame rate : 25.098 FPS
Color space : YUV
Chroma subsampling : 4:2:0
Bit depth : 8 bits
Scan type : Progressive
Bits/(Pixel*Frame) : 0.038
Stream size : 131 MiB (74%)
Color range : Limited
Color primaries : BT.709
Transfer characteristics : BT.709
Matrix coefficients : BT.709

Audio
ID : 2
Format :
Format/Info : Advanced Audio Codec
Format profile : LC
Codec ID : mp4a-40-2
Duration : 47 min 22 s
Bit rate mode : Constant
Bit rate : 128 kb/s
Channel(s) : 2 channels
Channel positions : Front: L R
Sampling rate : 44.1 kHz
Frame rate : 43.066 FPS (1024 SPF)
Compression mode : Lossy
Stream size : 43.4 MiB (25%)
Default : Yes
Alternate group : 1
Скріншоти







Джерело: 1+1
Особиста оцінка: 0 - не дивився


Золотий реліз (завантажене не впливає на рейтинг)
 Трекер:    Зареєстрований   

Завантажити / скачати український серіал



відео для новачків



 Зареєстрований:   2018-11-24 00:43
 Розмір:   4.07 GB 
 Оцінка серіалу:   4/10 (Голосів: 8)
   
Ваш часовий пояс: GMT + 2 Години

Нова тема   Відповісти