Статус: Update / Status Update (2018) Remux 1080p Ukr/Eng | Sub Eng

Нові коментарі

Нова тема   Відповісти
Автор Повідомлення
staf777 
Відео Гуртом - підтримка та поширення
Відео Гуртом - підтримка та поширення


З нами з: 16.11.16
Востаннє: 18.11.19
Повідомлень: 3031

2018-11-23 20:41  
Статус: Update / Status Update (2018) Remux 1080p Ukr/Eng | Sub Eng

Статус: Update / Status Update (2018) Remux 1080p Ukr/Eng | Sub Eng


Жанр: комедія, фентезі
Країна: США, Канада, Китай



Кінокомпанія: Offspring Entertainment, Brightlight Pictures, DNA Pictures, Heyi Capital
Режисер: Скотт Спір
Актори: Росс Лінч, Олівія Голт, Кортні Ітон, Маркіян Тарасюк, Ґреґґ Салкін, Харві Гільєн, Ніколас Лі, Фамке Янссен, Джон Майкл Хіггінс, Венді МакЛендон-Кові та інщі

Сюжет:
Старшокласник Кайл щойно перевівся до нової школи. Лише місцевий невдаха прийняв його з розкритими обіймами. Більш успішні хлопці при першій же зустрічі розбили його телефон. Дивакуватий незнайомець із телефонного сервісу встановив на новий гаджет Кайла якийсь додаток. Тепер будь-яке вигадане повідомлення, опубліковане Кайлом, одразу стає реальністю.


Тривалість: 01:46:24
Якість: Remux 1080p
Відео:
кодек:
розмір кадру: 1920x1080
бітрейт: 18,9 Mб/с

Аудіо # 1:
мова: українська
переклад: професійний дубльований | студія AAA-Sound
кодек: 2.0 [стерео]
бітрейт: 192 кб/с

Аудіо # 2:
мова: англійська
переклад: оригінал
кодек: -HD MA 5.1
бітрейт: 1920 кб/с

Субтитри # 1-2: (повні, SDH)
мова: англійська
тип: програмні (м'які)
формат: *.srt
Info
General
Unique ID : 119897672333973569005212302204853237804 (0x5A3373A54CE274C6916835D1CCE3382C)
Complete name : N:\Фільми HD\Комедія\Status Update (2018) Remux 1080p [UKR][ENG][Hurtom].
Format :
Format version : Version 4 / Version 2
File size : 15.7 GiB
Duration : 1 h 46 min
Overall bit rate mode : Variable
Overall bit rate : 21.0 Mb/s
Movie name : Status Update (2018) Remux 1080p [UKR][ENG][Hurtom]
Encoded date : UTC 2018-11-23 21:50:52
Writing application : v24.0.0 ('Beyond The Pale') 64-bit
Writing library : libebml v1.3.6 + v1.4.9
Attachments : posterab9bff1e0dc7d0f8.jpg

Video
ID : 1
Format : AVC
Format/Info : Advanced Video Codec
Format profile : [email protected]
Format settings : CABAC / 4 Ref Frames
Format settings, CABAC : Yes
Format settings, ReFrames : 4 frames
Codec ID : V_MPEG4/ISO/AVC
Duration : 1 h 46 min
Bit rate mode : Variable
Bit rate : 18.9 Mb/s
Maximum bit rate : 38.0 Mb/s
Width : 1 920 pixels
Height : 1 080 pixels
Display aspect ratio : 16:9
Frame rate mode : Constant
Frame rate : 23.976 (24000/1001) FPS
Color space : YUV
Chroma subsampling : 4:2:0
Bit depth : 8 bits
Scan type : Progressive
Bits/(Pixel*Frame) : 0.380
Stream size : 14.1 GiB (90%)
Language : English
Default : Yes
Forced : No

Audio #1
ID : 2
Format : AC-3
Format/Info : Audio Coding 3
Codec ID : A_AC3
Duration : 1 h 46 min
Bit rate mode : Constant
Bit rate : 192 kb/s
Channel(s) : 2 channels
Channel positions : Front: L R
Sampling rate : 48.0 kHz
Frame rate : 31.250 FPS (1536 SPF)
Bit depth : 16 bits
Compression mode : Lossy
Stream size : 147 MiB (1%)
Title : Dub [AAASound], 2.0 [stereo] 192 Kbps
Language : Ukrainian
Service kind : Complete Main
Default : Yes
Forced : Yes

Audio #2
ID : 3
Format :
Format/Info : Digital Theater Systems
Format profile : MA / Core
Codec ID : A_DTS
Duration : 1 h 46 min
Bit rate mode : Variable / Constant
Bit rate : 1 920 kb/s / 1 509 kb/s
Channel(s) : 6 channels
Channel positions : Front: L C R, Side: L R, LFE
Sampling rate : 48.0 kHz
Frame rate : 93.750 FPS (512 SPF)
Bit depth : 16 bits
Compression mode : Lossless / Lossy
Stream size : 1.42 GiB (9%)
Title : Original
Language : English
Default : No
Forced : No

Text #1
ID : 4
Format : UTF-8
Codec ID : S_TEXT/UTF8
Codec ID/Info : UTF-8 Plain Text
Duration : 1 h 42 min
Bit rate : 77 b/s
Count of elements : 1623
Stream size : 58.4 KiB (0%)
Title : Full
Language : English
Default : No
Forced : No

Text #2
ID : 5
Format : UTF-8
Codec ID : S_TEXT/UTF8
Codec ID/Info : UTF-8 Plain Text
Duration : 1 h 42 min
Bit rate : 80 b/s
Count of elements : 1693
Stream size : 60.7 KiB (0%)
Title : SDH
Language : English
Default : No
Forced : No

Menu
00:00:00.000 : :00:00:00.000
00:10:24.541 : :00:10:24.541
00:15:51.784 : :00:15:51.784
00:25:04.211 : :00:25:04.211
00:31:46.947 : :00:31:46.947
00:41:15.431 : :00:41:15.431
00:51:18.450 : :00:51:18.450
01:00:46.101 : :01:00:46.101
01:07:21.037 : :01:07:21.037
01:16:25.206 : :01:16:25.206
01:24:47.416 : :01:24:47.416
01:32:11.943 : :01:32:11.943
Скріншоти





Джерело: &
Особиста оцінка: 0 - не дивився


Золотий реліз (завантажене не впливає на рейтинг)
 Трекер:    Зареєстрований   

Завантажити / скачати фільм українською



відео для новачків



 Зареєстрований:   2018-11-24 00:28
 Розмір:   15.67 GB 
 Оцінка фільму:   7/10 (Голосів: 4)
   
Інші релізи
   Статус: Update / Status Update (2018) AVC Ukr/Eng | Sub Eng FaB0SS  4 / 0   2.03 GB   2019-07-29 22:18 
   Статус: Update / Status Update (2018) 1080p Ukr/Eng | Sub Eng staf777  1 / 0   7.61 GB   2018-11-23 22:51 
   Статус: Update / Status Update (2018) 720р Ukr/Eng | Sub Eng 11FrYkT  4 / 0   3.72 GB   2018-11-23 22:33 
   Статус: Update / Status Update (2018) Ukr/Eng uafilm.tv  4 / 0   1.37 GB   2018-07-04 21:52 
Ваш часовий пояс: GMT + 2 Години

Нова тема   Відповісти