Формула 1. Сезон 2018. Етап 21. Гран-Прі Абу-Дабі. 1 практика (23.11.2018) HDTV 1080i Ukr/Pol

Нові коментарі

Нова тема   Відповісти
Останній раз роздавалося sergiyko.5 (2019-03-03)
Автор Повідомлення
sergiyko.5 
VIP


З нами з: 25.02.16
Востаннє: 22.10.20
Повідомлень: 3602

2018-11-23 17:20  
Формула 1. Сезон 2018. Етап 21. Гран-Прі Абу-Дабі. 1 практика (23.11.2018) HDTV 1080i Ukr/Pol

Формула 1. Сезон 2018. Етап 21. Гран-Прі Абу-Дабі. 1 практика (23.11.2018) HDTV 1080i Ukr/Pol

Жанр: Перегони Формула 1
Країна: Абу-Дабі
Телеканал: Перший автомобільний
Коментатор: Павло Воробйов

Опис:
Перша практика двадцять першого етапу Гран-Прі Абу-Дабі 2018 року відбулась 23 листопада 2018 року об 11 годині за київським часом.


Тривалість: 01:29:52
Якість: HDTV

Відео:кодек: розмір кадру: 1920 х 1080 бітрейт: 6770 кб/с
Аудіо 1: мова: українська кодек: MP2 2.0 бітрейт: 192 кб/с
Аудіо 2: мова: польська кодек: 2.0 бітрейт: 192 кб/с

Примітка: Під час відеотрансляції була реклама, яка вподальшому вирізана.
Про файл:
General
Unique ID : 39601719347181897448880979455768437836 (0x1DCB0382C2AB025986D45C40C61EA44C)
Complete name : G:\Torrents2\SPORT\Formula 1\F1.2018.21.Abu.Dhabi.Practice.1.1080i.HDTV.
Format :
Format version : Version 4
File size : 4.49 GiB
Duration : 1 h 29 min
Overall bit rate : 7 140 kb/s
Encoded date : UTC 2018-11-23 14:08:15
Writing application : v28.1.0 ('Morning Child') 64-bit
Writing library : libebml v1.3.6 + v1.4.9

Video
ID : 1
Format : AVC
Format/Info : Advanced Video Codec
Format profile : [email protected]
Format settings : CABAC / 4 Ref Frames
Format settings, CABAC : Yes
Format settings, ReFrames : 4 frames
Codec ID : V_MPEG4/ISO/AVC
Duration : 1 h 29 min
Bit rate : 6 793 kb/s
Width : 1 920 pixels
Height : 1 080 pixels
Display aspect ratio : 16:9
Frame rate mode : Variable
Frame rate : 50.000 FPS
Original frame rate : 25.000 FPS
Standard : Component
Color space : YUV
Chroma subsampling : 4:2:0
Bit depth : 8 bits
Scan type : Interlaced
Scan type, store method : Separated fields
Scan order : Top Field First
Bits/(Pixel*Frame) : 0.066
Stream size : 4.26 GiB (95%)
Language : English
Default : Yes
Forced : No
Color range : Limited
Color primaries : BT.709
Transfer characteristics : BT.709
Matrix coefficients : BT.709

Audio #1
ID : 2
Format : MPEG Audio
Format version : Version 1
Format profile : Layer 2
Codec ID : A_MPEG/L2
Codec ID/Hint : MP2
Duration : 1 h 29 min
Bit rate mode : Constant
Bit rate : 192 kb/s
Channel(s) : 2 channels
Sampling rate : 48.0 kHz
Frame rate : 41.664 FPS (1152 SPF)
Compression mode : Lossy
Delay relative to video : 120 ms
Stream size : 123 MiB (3%)
Language : Ukrainian
Default : Yes
Forced : Yes

Audio #2
ID : 3
Format : AC-3
Format/Info : Audio Coding 3
Commercial name : Dolby Digital
Codec ID : A_AC3
Duration : 1 h 29 min
Bit rate mode : Constant
Bit rate : 160 kb/s
Channel(s) : 2 channels
Channel layout : L R
Sampling rate : 48.0 kHz
Frame rate : 31.250 FPS (1536 SPF)
Bit depth : 16 bits
Compression mode : Lossy
Delay relative to video : 120 ms
Stream size : 103 MiB (2%)
Language : Polish
Service kind : Complete Main
Default : No
Forced : No
Скріншоти:



Автор запису/зведення: sergiyko


 Трекер:    Зареєстрований   

Завантажити / скачати торрент



відео для новачків



 Зареєстрований:   2018-11-23 17:20
 Розмір:   4.49 GB 
 Оцінка:   10/10 (Голосів: 3)
   
Ваш часовий пояс: GMT + 2 Години

Нова тема   Відповісти