Дні слави / Days of Glory / Indigenes (2006) 1080p Ukr/Fre | Sub Eng/Fre

Нові коментарі

Нова тема   Відповісти
Автор Повідомлення
staf777 
Відео Гуртом - підтримка та поширення
Відео Гуртом - підтримка та поширення


З нами з: 16.11.16
Востаннє: 12.12.19
Повідомлень: 3056

2018-11-23 16:12  
Дні слави / Days of Glory / Indigenes (2006) 1080p Ukr/Fre | Sub Eng/Fre

Дні слави / Days of Glory / Indigenes (2006) 1080p Ukr/Fre | Sub Eng/Fre


Жанр: бойовик, драма, військовий
Країна: Франція, Алжир, Бельгія, Марокко



Кінокомпанія: Tessalit Productions
Режисер: Рачід Бушареб
Актори: Жамель Деббуз, Самі Насері, Рошді Зем, Самі Буажіла, Бернар Бланкан, Метью Сімонет, Бенуа Жірос, Мелані Лоран, Антуан Чаппі

Сюжет:
1943 рік. Ці французи ніколи не були у Франції, проте перед лицем війни Саїд, Абделькадер, Мессауд і Яссір приєднуються до французької армії, аби захищати свою Батьківщину від нацистів разом з 130-а тисячами інших потенційних жителів країни.
Ці герої були надовго забуті історією, але подвиг не стерся з пам'яті людей зовсім. Їх силами були взяті перемоги в Італії, Провансі і Восге, а головний бій чекав воїнів в маленькому селі Ельзас, де чотирьом сміливцям довелося поодинці протистояти цілому батальйону німецьких загарбників.


Тривалість: 02:03:37
Якість: 1080p
Відео:
кодек:
розмір кадру: 1910х816
бітрейт: 10.4 Mб/с

Аудіо # 1:
мова: українська
переклад: двоголосий закадровий
кодек: 5.1
бітрейт: 384 кб/с

Аудіо # 2:
мова: французька
переклад: оригінал
кодек: 5.1
бітрейт: 640 кб/с

Джерело озвучення:


Субтитри:
мова: англійська
тип: програмні (м'які)
формат: *.srt

Субтитри:
мова: французька
тип: програмні (м'які)
формат: *.srt
Info
General
Unique ID : 5823756507362227355442038071579055327 (0x4619D5D486F9178D25501BE633714DF)
Complete name : S:\Days of Glory (2006) 1080p [UKR][FRA][Hurtom].
Format :
Format version : Version 4 / Version 2
File size : 9.72 GiB
Duration : 2 h 3 min
Overall bit rate : 11.3 Mb/s
Movie name : Days of Glory (2006) 1080p [UKR][FRA][Hurtom]
Encoded date : UTC 2018-11-23 08:17:05
Writing application : v24.0.0 ('Beyond The Pale') 64-bit
Writing library : libebml v1.3.6 + v1.4.9
Cover : Yes
Attachments : cover.jpg

Video
ID : 1
Format : AVC
Format/Info : Advanced Video Codec
Format profile : [email protected]
Format settings : CABAC / 5 Ref Frames
Format settings, CABAC : Yes
Format settings, ReFrames : 5 frames
Codec ID : V_MPEG4/ISO/AVC
Duration : 2 h 3 min
Bit rate : 10.4 Mb/s
Width : 1 916 pixels
Height : 816 pixels
Display aspect ratio : 2.35:1
Frame rate mode : Constant
Frame rate : 24.000 FPS
Color space : YUV
Chroma subsampling : 4:2:0
Bit depth : 8 bits
Scan type : Progressive
Bits/(Pixel*Frame) : 0.278
Stream size : 9.00 GiB (93%)
Writing library : core 146 r2538kMod 121396c
Encoding settings : cabac=1 / ref=5 / deblock=1:-3:-3 / analyse=0x3:0x133 / me=umh / subme=10 / psy=1 / fade_compensate=0.00 / psy_rd=1.10:0.00 / mixed_ref=1 / me_range=24 / chroma_me=1 / trellis=2 / 8x8dct=1 / cqm=0 / deadzone=21,11 / fast_pskip=0 / chroma_qp_offset=-2 / threads=12 / lookahead_threads=2 / sliced_threads=0 / nr=0 / decimate=0 / interlaced=0 / bluray_compat=0 / constrained_intra=0 / fgo=0 / bframes=7 / b_pyramid=2 / b_adapt=2 / b_bias=0 / direct=3 / weightb=1 / open_gop=0 / weightp=2 / keyint=250 / keyint_min=24 / scenecut=40 / intra_refresh=0 / rc_lookahead=60 / rc=crf / mbtree=0 / crf=17.3000 / qcomp=0.65 / qpmin=0 / qpmax=69 / qpstep=4 / vbv_maxrate=62500 / vbv_bufsize=78125 / crf_max=0.0 / nal_hrd=none / filler=0 / ip_ratio=1.30 / pb_ratio=1.20 / aq=3:0.70
Language : French
Default : Yes
Forced : No
Color range : Limited
Matrix coefficients : BT.709

Audio #1
ID : 2
Format : AC-3
Format/Info : Audio Coding 3
Codec ID : A_AC3
Duration : 2 h 3 min
Bit rate mode : Constant
Bit rate : 192 kb/s
Channel(s) : 2 channels
Channel positions : Front: L R
Sampling rate : 48.0 kHz
Frame rate : 31.250 FPS (1536 SPF)
Bit depth : 16 bits
Compression mode : Lossy
Stream size : 170 MiB (2%)
Title : Ukr-Dvo, 1+1|
Language : Ukrainian
Service kind : Complete Main
Default : Yes
Forced : Yes

Audio #2
ID : 3
Format : AC-3
Format/Info : Audio Coding 3
Codec ID : A_AC3
Duration : 2 h 3 min
Bit rate mode : Constant
Bit rate : 640 kb/s
Channel(s) : 6 channels
Channel positions : Front: L C R, Side: L R, LFE
Sampling rate : 48.0 kHz
Frame rate : 31.250 FPS (1536 SPF)
Bit depth : 16 bits
Compression mode : Lossy
Stream size : 566 MiB (6%)
Language : French
Service kind : Complete Main
Default : No
Forced : No

Text #1
ID : 4
Format : UTF-8
Codec ID : S_TEXT/UTF8
Codec ID/Info : UTF-8 Plain Text
Duration : 1 h 56 min
Bit rate : 22 b/s
Count of elements : 787
Stream size : 19.0 KiB (0%)
Language : English
Default : No
Forced : No

Text #2
ID : 5
Format : UTF-8
Codec ID : S_TEXT/UTF8
Codec ID/Info : UTF-8 Plain Text
Duration : 1 h 47 min
Bit rate : 7 b/s
Count of elements : 197
Stream size : 5.85 KiB (0%)
Title : French SRT
Language : French
Default : No
Forced : No

Menu
00:00:00.000 : en:00:00:00.000
00:11:48.750 : en:00:11:48.750
00:20:41.000 : en:00:20:41.000
00:27:01.417 : en:00:27:01.417
00:32:34.375 : en:00:32:34.375
00:44:56.625 : en:00:44:56.625
01:01:49.250 : en:01:01:49.250
01:30:33.000 : en:01:30:33.000
01:35:45.958 : en:01:35:45.958
01:38:27.458 : en:01:38:27.458
01:53:32.042 : en:01:53:32.042
01:58:06.667 : en:01:58:06.667







Постер - Ermolenko, доріжка - Romario_O
Джерело: &
Особиста оцінка: 0 - не дивився
ЗАЛИШАЙТЕСЬ ЯКОМОГА ДОВШЕ НА РОЗДАЧІ!

СКАЧАВ САМ - ДАЙ СКАЧАТИ ІНШИМ



 Трекер:    Зареєстрований   

Завантажити / скачати фільм українською



відео для новачків



 Зареєстрований:   2018-11-23 16:12
 Розмір:   9.72 GB 
 Оцінка фільму:   8/10 (Голосів: 9)
   
Інші релізи
   Дні слави / Days of Glory / Indigenes (2006) Ukr/Fre Romario_O  2 / 0   2.18 GB   2010-07-08 12:59 
wwwombat 
Відео Гуртом - підтримка та поширення
Відео Гуртом - підтримка та поширення


З нами з: 09.01.12
Востаннє: 11.12.19
Повідомлень: 17

2018-11-23 16:17  
Виправте помилкку з роками - фільм 2006 року - 2009 не ясно до чого тут)
staf777 
Відео Гуртом - підтримка та поширення
Відео Гуртом - підтримка та поширення


З нами з: 16.11.16
Востаннє: 12.12.19
Повідомлень: 3056

2018-11-23 16:30  
wwwombat написано:
фільм 2006 року - 2009 не ясно до чого тут)

Виправив при оформленні скопіював зайве

Avay 
Свій


З нами з: 23.12.12
Востаннє: 09.12.19
Повідомлень: 53

2018-11-23 16:50  
Дозвольте і мені вказати на досадний промах автора: опис сюжету поданий аж два рази, а списку акторів нема.
hetzendorf 
Забанено
Забанено


З нами з: 23.07.15
Востаннє: 07.12.19
Повідомлень: 2585

2018-11-23 17:41  
Цитата:
Ці французи ніколи не були у Франції, проте перед лицем війни Саїд, Абделькадер, Мессауд і Яссір приєднуються до французької армії

Цікаво, що станеться раніше:

* Ці кола завжди мали кути, проте … квадрат, паралелограм, ромб та пʼятикутник приєднуються до множини кіл
чи
* Ці араби ніколи не були у Саудівській Арабії, проте … Люсьєн, Альбер, Ґастон та Жером приєднуються до арабської …
чи
* Ці вівці ніколи не їли трави, проте … вовк, шакал, койот та лисиця приєднуються до череди, аби випасатися на полонині

Робимо ставки, пані та панове!

staf777 
Відео Гуртом - підтримка та поширення
Відео Гуртом - підтримка та поширення


З нами з: 16.11.16
Востаннє: 12.12.19
Повідомлень: 3056

2018-11-23 18:58  
Опис і все інше брав з реліза Romario_O замість того щоб казати дякую можете тільки до чогось причепитись і кричати про огріхи автора - кому що не сподобається проходимо мовчки мимо ... професора та лінгвісти дістали вже ....
+380954897458 
VIP


З нами з: 02.06.17
Востаннє: 12.12.19
Повідомлень: 531

2018-11-23 19:19  
А от я подякую. Люблю фільми такого жанру, і не лише голівудські. Отже, дякую!
Oleksa9 
VIP


З нами з: 17.05.12
Востаннє: 11.12.19
Повідомлень: 386

2019-03-07 06:29  
Можна почути як правильно вимовляти слова та літери українською!
"він правий" -> його правда, він має рацію

Ваш часовий пояс: GMT + 2 Години

Нова тема   Відповісти