Останнє Королівство (Сезон 3) / The Last Kingdom (Season 3) (2018) 720p Eng | Sub Ukr/Eng

Нові коментарі

Нова тема   Відповісти
Автор Повідомлення
Anonymous 







2018-11-23 12:18  
Останнє Королівство (Сезон 3) / The Last Kingdom (Season 3) (2018) 720p Eng | Sub Ukr/Eng



Жанр: пригодницький, історичний, романтичний
Країна: Британія



Кінокомпанія: BBC, Netflix, Carnival Film & Television
Режисер: Пітер Гоар, Ентоні Бірн, Бен Ченен
Актори: Александер Дреймон, Єн Гарт, Дейвід Доусон, Тобіас Сантелмен, Емілі Кокс, Едріан Бавер, Еймі Врен, Ніколет Барабас, Нора Лілі Горіч

Сюжет:
Англія, 872-й рік. Сакс, якого виховали дани, мусить стати на чийсь бік і відіграти свою роль у народженні нової нації пліч-о-пліч з людиною, яку згодом назвуть Королем Альфредом Великим.


Тривалість: 52хв серій 10 з 10
Якість:
Відео:
кодек:
розмір кадру: 1280 х 720
бітрейт: 2490- 4000 кб/с

Аудіо:
мова: англійська
переклад: оригінал
кодек: E- 5.1
бітрейт: 640 кб/с

Субтитри:
мова: українська
тип: програмні (м'які)
формат: *.srt

Субтитри:
мова: англійська
тип: програмні (м'які)
формат: *.srt
Скріншоти




MI
Complete name : F:\Serials\The Last Kingdom (S03)\S03E01.
Format :
Format version : Version 4
File size : 1.19 GiB
Duration : 54 min 58 s
Overall bit rate mode : Variable
Overall bit rate : 3 110 kb/s
Encoded date : UTC 2018-11-23 10:00:11
Writing application : v27.0.0 ('Metropolis') 64-bit
Writing library : libebml v1.3.6 + v1.4.9

Video
ID : 1
Format : AVC
Format/Info : Advanced Video Codec
Format profile : [email protected]
Format settings : CABAC / 3 Ref Frames
Format settings, CABAC : Yes
Format settings, ReFrames : 3 frames
Codec ID : V_MPEG4/ISO/AVC
Duration : 54 min 58 s
Bit rate mode : Variable
Bit rate : 2 490 kb/s
Maximum bit rate : 3 735 kb/s
Width : 1 280 pixels
Height : 720 pixels
Display aspect ratio : 16:9
Frame rate mode : Constant
Frame rate : 25.000 FPS
Color space : YUV
Chroma subsampling : 4:2:0
Bit depth : 8 bits
Scan type : Progressive
Bits/(Pixel*Frame) : 0.108
Stream size : 971 MiB (79%)
Writing library : core 148 r2715 7e75228
Encoding settings : cabac=1 / ref=3 / deblock=1:0:0 / analyse=0x1:0x111 / me=umh / subme=10 / psy=1 / psy_rd=1.00:0.00 / mixed_ref=1 / me_range=24 / chroma_me=1 / trellis=2 / 8x8dct=0 / cqm=0 / deadzone=21,11 / fast_pskip=1 / chroma_qp_offset=-2 / threads=8 / lookahead_threads=1 / sliced_threads=0 / nr=0 / decimate=1 / interlaced=0 / bluray_compat=0 / stitchable=1 / constrained_intra=0 / bframes=2 / b_pyramid=0 / b_adapt=2 / b_bias=0 / direct=3 / weightb=1 / open_gop=0 / weightp=2 / keyint=50 / keyint_min=26 / scenecut=0 / intra_refresh=0 / rc_lookahead=50 / rc=2pass / mbtree=1 / bitrate=2490 / ratetol=1.0 / qcomp=0.50 / qpmin=6 / qpmax=51 / qpstep=4 / cplxblur=20.0 / qblur=0.5 / vbv_maxrate=3735 / vbv_bufsize=4980 / nal_hrd=vbr / filler=0 / ip_ratio=1.40 / aq=1:1.00
Language : English
Default : Yes
Forced : No

Audio
ID : 2
Format : E-AC-3
Format/Info : Enhanced AC-3
Commercial name : Dolby Digital Plus
Codec ID : A_EAC3
Duration : 54 min 58 s
Bit rate mode : Constant
Bit rate : 640 kb/s
Channel(s) : 6 channels
Channel layout : L R C LFE Ls Rs
Sampling rate : 48.0 kHz
Frame rate : 31.250 FPS (1536 SPF)
Compression mode : Lossy
Stream size : 252 MiB (21%)
Language : English
Service kind : Complete Main
Default : Yes
Forced : No

Text #1
ID : 3
Format : UTF-8
Codec ID : S_TEXT/UTF8
Codec ID/Info : UTF-8 Plain Text
Duration : 53 min 55 s
Bit rate : 86 b/s
Count of elements : 554
Stream size : 34.1 KiB (0%)
Title : Ukrainian
Language : Ukrainian
Default : Yes
Forced : No

Text #2
ID : 4
Format : UTF-8
Codec ID : S_TEXT/UTF8
Codec ID/Info : UTF-8 Plain Text
Duration : 53 min 9 s
Bit rate : 58 b/s
Count of elements : 745
Stream size : 22.9 KiB (0%)
Title : English
Language : English
Default : No
Forced : No
Джерело:


Бронзовий реліз (на рейтинг впливає 75% завантаженого)
 Трекер:    Зареєстрований   

Завантажити / скачати серіал українською



відео для новачків



 Зареєстрований:   2018-11-23 12:18
 Розмір:   11.44 GB 
 Оцінка серіалу:   9.6/10 (Голосів: 29)
   
bingo007447 
Частий відвідувач


З нами з: 02.04.10
Востаннє: 10.11.20
Повідомлень: 35

2018-11-23 20:16  
Чудово! Вже є повний серіал. А як щодо перекладу?
На нього збору ще ж не було?!

Anonymous 







2018-11-23 21:14  
bingo007447 написано:
А як щодо перекладу?

Тут і є переклад, а озвучення буде пізніше, як збереться сума на сезон.

Детальніше тут https://www.hurtom.com/portal/series

Feniksb 
Новенький


З нами з: 27.12.09
Востаннє: 27.11.20
Повідомлень: 13

2018-11-23 22:34  
Надіюсь "Незупиняй Продакшн" розпочне збір коштів на озвучення.
bajdaro4nuk 
Новенький


З нами з: 12.11.14
Востаннє: 19.11.20
Повідомлень: 19

2018-12-09 12:17  
Хороший серіал! Зараз значно випередив вікінгів. В першому сезоні було чимало скарг від глядачів що Утред якийсь непослідовний і дурний, не те що Рагнар з "Вікінгів". Перечитавши оригінал " Саксонські хроніки" Б.Корнуелла, зазначаю що майже не відхилялись тоді від книги, головний герой розумнішав потім, спочатку справді був довбнем😊. 2 і 3й сезони не зовсім по книзі але може воно і на краще, та й епоха передається дуже реалістично. Рекомендую до перегляду і дякую за можливість дивитись мовою оригіналу.
Володимир65 
Частий відвідувач


З нами з: 28.12.12
Востаннє: 18.11.20
Повідомлень: 41

2018-12-11 22:41  
Дякую...
casper101 
VIP


З нами з: 03.12.09
Востаннє: 21.11.20
Повідомлень: 451

2019-01-27 15:40  
закінчення серіалу достойне, гарно зняли.
Володимир65 
Частий відвідувач


З нами з: 28.12.12
Востаннє: 18.11.20
Повідомлень: 41

2019-02-08 18:12  
Додивився... Рекомендую, фільм сподобався...
Vodo4kin 
Частий відвідувач


З нами з: 10.06.15
Востаннє: 24.11.20
Повідомлень: 30

2019-12-02 20:00  
Прошу звернути увагу KMPlayer ver 3.6 не підтримує аудіо кодек E- 5.1, в той час VLC 2.2 - файно
Ваш часовий пояс: GMT + 2 Години

Нова тема   Відповісти