Моя геніальна подруга (Сезон 1) / My Brilliant Friend / L'amica geniale (Season 1) (2018)

Нові коментарі

Нова тема   Відповісти
Автор Повідомлення
DniproFilm 
VIP


З нами з: 10.10.18
Востаннє: 17.08.19
Повідомлень: 258

2018-11-22 00:17  
Моя геніальна подруга (Сезон 1) / My Brilliant Friend / L'amica geniale (Season 1) (2018)

Моя геніальна подруга (Сезон 1) / My Brilliant Friend / L'amica geniale (Season 1) (2018)


Жанр: драма
Країна:Італія, США



Кінокомпанія / телеканал: Wildside, Fandango, Rai Fiction

Режисер: Саверіо Костанцо
Актори/ролі озвучують: Еліза дель Дженіо, Маргерита Маццукко, Елізабета Де Пало, Людовіка Насті, Гая Джираче, Дора Романо, Томазо Рушано, Дженаро Де Стефано, Крістіfн Ді Джакомо, Джованні Амура та інші

Сюжет:
Неаполь, 1960-ті. Дочка швейцара Еліна мешкає у бідному кварталі Неаполю та має гостру на язик подругу Лілу, дочку чоботаря. Із часом їхня дружба перетворюється на справжнє поле битви.


Тривалість: 1 серія: ~ 60 хв. (цілком серій: 8)
Перелік серій

1. Le Bambole
2. I Soldi
3. Le Metamorfosi
4. Le Smarginatura
5. Le scarpe
6. L'isola
7. I fidanzati
8. La promessa
Якість:
Відео:
кодек:
розмір кадру: 720x400
бітрейт: ~1800 кб/с

Аудіо # 1:
мова: українська
переклад: багатоголосий закадровий
кодек: 5.1
бітрейт: 384 кб/с

Джерело озвучення:
DniproFilm
Info

Video
ID : 0
Format : MPEG-4 Visual
Format profile : Advanced [email protected]
Format settings : BVOP2
Format settings, BVOP : 2
Format settings, QPel : No
Format settings, GMC : No warppoints
Format settings, Matrix : Default (H.263)
Muxing mode : Packed bitstream
Codec ID :
Codec ID/Hint :
Duration : 56 min 34 s
Bit rate : 1 757 kb/s
Width : 720 pixels
Height : 400 pixels
Display aspect ratio : 16:9
Frame rate : 23.976 (24000/1001) FPS
Color space : YUV
Chroma subsampling : 4:2:0
Bit depth : 8 bits
Scan type : Progressive
Compression mode : Lossy
Bits/(Pixel*Frame) : 0.254
Stream size : 711 MiB (82%)
Writing library : 67

Audio
ID : 1
Format : AC-3
Format/Info : Audio Coding 3
Commercial name : Dolby Digital
Codec ID : 2000
Duration : 56 min 34 s
Bit rate mode : Constant
Bit rate : 384 kb/s
Channel(s) : 6 channels
Channel positions : Front: L C R, Side: L R, LFE
Sampling rate : 48.0 kHz
Frame rate : 31.250 FPS (1536 SPF)
Bit depth : 16 bits
Compression mode : Lossy
Stream size : 155 MiB (18%)
Alignment : Aligned on interleaves
Interleave, duration : 42 ms (1.00 video frame)
Interleave, preload duratio : 512 ms
Service kind : Complete Main
Скріншоти

Увага, присутня відео та аудіореклама.


Джерело: DniproFilm



Авторський реліз (завантажувати можна без реєстрації)
 Трекер:    Зареєстрований   

Завантажити / скачати серіал українською



відео для новачків



 Зареєстрований:   2019-01-26 17:16
 Розмір:   7.18 GB 
 Оцінка серіалу:   9.6/10 (Голосів: 15)
   
[email protected] 
Свій


З нами з: 27.02.13
Востаннє: 17.08.19
Повідомлень: 64

2018-11-22 01:06  
Даруйте!
Виправте, будь ласка: інтерес "любовний".
Дякую Wink (1)

Ledi Di 
Новенький


З нами з: 21.11.09
Востаннє: 18.08.19
Повідомлень: 9

2018-11-22 04:08  
Хмм. Якщо не помиляюсь, то опис серіалу взято з "Маленької барабанщиці" Мабуть далась в знаки пізня пора )) Виправте будь-ласка.
DniproFilm 
VIP


З нами з: 10.10.18
Востаннє: 17.08.19
Повідомлень: 258

2018-11-22 04:59  
Ledi Di
Саме так. Дякую. Виправлено.

DniproFilm 
VIP


З нами з: 10.10.18
Востаннє: 17.08.19
Повідомлень: 258

2018-12-20 00:04  
УВАГА! РЕЛІЗ ОНОВЛЕНО! (19.12.2018) Додано 3-4 серії.

piznajko 
Відео Гуртом - субтитрування
Відео Гуртом - субтитрування


З нами з: 24.02.09
Востаннє: 19.08.19
Повідомлень: 1957

2018-12-20 17:20  
В укр перекладі книги-першоджерела назву переклали як "Моя неймовірна подруга" https://www.bookclub.ua/ukr/catalog/books/pop/product.html?id=48746
DniproFilm 
VIP


З нами з: 10.10.18
Востаннє: 17.08.19
Повідомлень: 258

2019-01-15 00:45  
УВАГА! РЕЛІЗ ОНОВЛЕНО! (14.01.2019) Додано 5-6 серії.

Centurion_24 
Новенький


З нами з: 10.01.13
Востаннє: 11.08.19
Повідомлень: 9

2019-01-16 17:53  
Ledi Di
будь- ласка, без тире) просто "будь ласка"

DniproFilm 
VIP


З нами з: 10.10.18
Востаннє: 17.08.19
Повідомлень: 258

2019-01-26 17:17  
УВАГА! РЕЛІЗ ОНОВЛЕНО! (26.01.2019) Додано 7-8 серії (фінал сезону).

don pedro 
Попереджень: 2
Попереджень: 2 


З нами з: 29.06.11
Востаннє: 18.08.19
Повідомлень: 14215

2019-01-28 23:17  
Серіал продовжено.
nataliksa 
Свій


З нами з: 18.04.14
Востаннє: 18.08.19
Повідомлень: 53

2019-02-05 10:55  
Дуже сподобалось,з нетерпінням чекатіму наступний сезон.
zaika 
VIP


З нами з: 01.07.12
Востаннє: 17.08.19
Повідомлень: 1205

2019-02-13 09:06  
Милий серіал. Ностальгійний за дитинством, молодістью, хоча і вкрай нужденою післявоєнною бідністью. Але неповторним часом, який вже не повернеться. Взяв фотографію свого першого класу. Ми були теж дуже бідно одягнені, як і герої серіалу (вони правда старші на 5 років). Всі сім'ї теж багатодітні. В родині найменше троє дітей. А то четверо, п'ятеро. Попри все шкода, що того часу неможливо повернути хоча б на мить. Хотілось би подивитись продовження серіалу. 10/10.
Ваш часовий пояс: GMT + 2 Години

Нова тема   Відповісти