Спокуса / Original Sin (2001) AVC 2xUkr/Eng | Sub Eng

Нові коментарі

Нова тема   Відповісти
Автор Повідомлення
staf777 
Відео Гуртом - підтримка та поширення
Відео Гуртом - підтримка та поширення


З нами з: 16.11.16
Востаннє: 11.12.19
Повідомлень: 3042

2018-11-21 22:53  
Спокуса / Original Sin (2001) AVC 2xUkr/Eng | Sub Eng

Спокуса / Original Sin (2001) AVC 2xUkr/Eng | Sub Eng


Жанр: трилер, мелодрама, детектив
Країна: США, Франція



Кінокомпанія: Epsilon Motion Pictures, Hyde Park Entertainment
Режисер: Майкл Крістофер
Актори: Антоніо Бандерас, Анжеліна Джолі, Томас Джейн, Джек Томпсон, Грегорі Іцин та інші

Сюжет:
Дія стрічки відбувається у 1880 р. Багатий кубинець Луїс Варгас дає в газеті шлюбне оголошення і невдовзі завдяки ньому знайомиться з американкою Джулією Расселл. Однак після весілля красуня зникає, викравши гроші Луїса. Здивований герой разом з приватним детективом вирушає на пошуки дружини...


Тривалість: 01:58:25
Якість: AVC
Відео:
кодек:
розмір кадру: 1024x436
бітрейт: 1873 кб/с

Аудіо # 1:
мова: українська
переклад: багатоголосий закадровий
кодек: 2.0
бітрейт: 192 кб/с

Аудіо # 2:
мова: українська
переклад: багатоголосий закадровий
кодек: 2.0
бітрейт: 192 кб/с

Аудіо # 3:
мова: англійська
переклад: оригінал
кодек: 5.1
бітрейт: 384 кб/с

Субтитри:
мова: англійська
тип: програмні (м'які)
формат: *.srt
Info
General
Unique ID : 24994114389180853423218273883759578481 (0x12CDB0FB3C670FBD1D7CAA5F76980D71)
Complete name : S:\Original Sin (2001) AVC [2xUKR][ENG][Hurtom].
Format :
Format version : Version 4 / Version 2
File size : 2.19 GiB
Duration : 1 h 58 min
Overall bit rate : 2 643 kb/s
Movie name : Original Sin (2001) AVC [2xUKR][ENG][Hurtom]
Encoded date : UTC 2018-11-22 17:46:04
Writing application : v24.0.0 ('Beyond The Pale') 64-bit
Writing library : libebml v1.3.6 + v1.4.9
Cover : Yes
Attachments : cover.jpg

Video
ID : 1
Format : AVC
Format/Info : Advanced Video Codec
Format profile : [email protected]
Format settings : CABAC / 9 Ref Frames
Format settings, CABAC : Yes
Format settings, ReFrames : 9 frames
Codec ID : V_MPEG4/ISO/AVC
Duration : 1 h 58 min
Bit rate : 1 873 kb/s
Width : 1 024 pixels
Height : 436 pixels
Display aspect ratio : 2.35:1
Frame rate mode : Constant
Frame rate : 23.976 (24000/1001) FPS
Color space : YUV
Chroma subsampling : 4:2:0
Bit depth : 8 bits
Scan type : Progressive
Bits/(Pixel*Frame) : 0.175
Stream size : 1.55 GiB (71%)
Writing library : core 114 r1913 5fd3dce
Encoding settings : cabac=1 / ref=9 / deblock=1:-1:-1 / analyse=0x3:0x133 / me=umh / subme=10 / psy=1 / psy_rd=1.00:0.00 / mixed_ref=1 / me_range=64 / chroma_me=1 / trellis=2 / 8x8dct=1 / cqm=0 / deadzone=21,11 / fast_pskip=0 / chroma_qp_offset=-2 / threads=6 / sliced_threads=0 / nr=0 / decimate=1 / interlaced=0 / constrained_intra=0 / bframes=7 / b_pyramid=2 / b_adapt=2 / b_bias=0 / direct=3 / weightb=1 / open_gop=0 / weightp=2 / keyint=250 / keyint_min=23 / scenecut=40 / intra_refresh=0 / rc=2pass / mbtree=0 / bitrate=1873 / ratetol=1.0 / qcomp=0.60 / qpmin=0 / qpmax=69 / qpstep=4 / cplxblur=20.0 / qblur=0.5 / ip_ratio=1.40 / pb_ratio=1.30 / aq=2:1.00 / zones=163546,170352,q=36
Language : English
Default : Yes
Forced : No

Audio #1
ID : 2
Format : AC-3
Format/Info : Audio Coding 3
Codec ID : A_AC3
Duration : 1 h 58 min
Bit rate mode : Constant
Bit rate : 192 kb/s
Channel(s) : 2 channels
Channel positions : Front: L R
Sampling rate : 48.0 kHz
Frame rate : 31.250 FPS (1536 SPF)
Bit depth : 16 bits
Compression mode : Lossy
Stream size : 163 MiB (7%)
Title : [UA-MVO-NTN]
Language : Ukrainian
Service kind : Complete Main
Default : Yes
Forced : Yes

Audio #2
ID : 3
Format : AC-3
Format/Info : Audio Coding 3
Codec ID : A_AC3
Duration : 1 h 58 min
Bit rate mode : Constant
Bit rate : 192 kb/s
Channel(s) : 2 channels
Channel positions : Front: L R
Sampling rate : 48.0 kHz
Frame rate : 31.250 FPS (1536 SPF)
Bit depth : 16 bits
Compression mode : Lossy
Stream size : 163 MiB (7%)
Title : [UA-MVO-CINE]
Language : Ukrainian
Service kind : Complete Main
Default : No
Forced : No

Audio #3
ID : 4
Format : AC-3
Format/Info : Audio Coding 3
Codec ID : A_AC3
Duration : 1 h 58 min
Bit rate mode : Constant
Bit rate : 384 kb/s
Channel(s) : 6 channels
Channel positions : Front: L C R, Side: L R, LFE
Sampling rate : 48.0 kHz
Frame rate : 31.250 FPS (1536 SPF)
Bit depth : 16 bits
Compression mode : Lossy
Stream size : 325 MiB (15%)
Language : English
Service kind : Complete Main
Default : No
Forced : No

Text
ID : 5
Format : UTF-8
Codec ID : S_TEXT/UTF8
Codec ID/Info : UTF-8 Plain Text
Duration : 1 h 56 min
Bit rate : 40 b/s
Count of elements : 1244
Stream size : 34.9 KiB (0%)
Language : English
Default : No
Forced : No

Menu
00:00:00.000 : :Chapter 01
00:12:59.779 : :Chapter 02
00:22:04.239 : :Chapter 03
00:26:26.418 : :Chapter 04
00:34:12.008 : :Chapter 05
00:47:24.299 : :Chapter 06
00:56:46.152 : :Chapter 07
01:01:30.061 : :Chapter 08
01:12:18.250 : :Chapter 09
01:21:16.538 : :Chapter 10
01:29:53.012 : :Chapter 11
01:38:02.459 : :Chapter 12
01:45:16.935 : :Chapter 13
01:51:43.530 : :Chapter 14
01:53:43.233 : :Chapter 15






Запис з Нового - slavik_v_z, запис з Cine - Sando7, синхронізація - Arsenfpu.

Джерело: &
Особиста оцінка: 8 - мені сподобалося


 Трекер:    Зареєстрований   

Завантажити / скачати фільм українською



відео для новачків



 Зареєстрований:   2018-11-22 20:58
 Розмір:   2.19 GB 
 Оцінка фільму:   10/10 (Голосів: 6)
   
Інші релізи
   Спокуса / Original Sin (2001) 1080p 2xUkr/Eng | Sub Eng staf777  2 / 0   7.9 GB   2018-05-17 16:57 
   Спокуса / Original Sin (2001) 2xUkr/Eng Arsenfpu  2 / 0   1.97 GB   2018-05-17 12:59 
   Спокуса / Original Sin [Unrated] (2001) Remux 1080p 2xUkr/Eng Deiv  0 / 0   14.36 GB   2018-01-05 18:44 
   Спокуса / Original Sin (2001) Ukr/Eng _oles  2 / 0   2.18 GB   2010-02-02 15:54 
alex2 
Поважний учасник


З нами з: 01.02.12
Востаннє: 10.12.19
Повідомлень: 159

2018-11-22 11:49  
дуже хороший фільм.
bot 
робот


З нами з: 30.09.07
Востаннє: 26.05.05
Повідомлень: 22609

2018-11-22 20:58  
Тему перенесено з Анонси релізів до форуму Фільми


staf777

Ваш часовий пояс: GMT + 2 Години

Нова тема   Відповісти