Містифікація / The Hoax (2006) 1080p Ukr/Eng | sub Eng

Нові коментарі

Нова тема   Відповісти
Автор Повідомлення
staf777 
Відео Гуртом - підтримка та поширення
Відео Гуртом - підтримка та поширення


З нами з: 16.11.16
Востаннє: 25.09.20
Повідомлень: 4038

2018-11-21 23:41  
Містифікація / The Hoax (2006) 1080p Ukr/Eng | sub Eng

Містифікація / The Hoax (2006) 1080p Ukr/Eng | sub Eng


Жанр: комедія, драма
Країна: США



Кінокомпанія: Miramax Films, Bob Yari Productions, Mark Gordon Company, The See
Режисер: Лассе Халлстрем
Актори: Річард Гір, Альфред Моліна, Хоуп Девіс, Марша Гей Харден, Стенлі Туччі, Джулі Дельпі

Сюжет:
Історії з життя письменника Кліффорда Ірвінга, який переконав усіх, в тому числі і себе, що йому визначено написати біографію Говарда Хьюза. Очманіла витівка зневіреної людини, що намагається перехитрити весь видавничий світ, і, в кінцевому рахунку, самого Говарда Хьюза, що веде затворницький спосіб життя.


Тривалість: 01:56:02
Якість: 1080p
Відео:
кодек:
розмір кадру: 1920x1040
бітрейт: 8579 кб/с

Аудіо # 1:
мова: українська
переклад: багатоголосий закадровий
кодек: 5.1
бітрейт: 384 кб/с
Переклад і озвучення виконано студією Так Треба Продакшн на замовлення телеканалу

Аудіо # 2:
мова: англійська
переклад: оригінал
кодек: 5.1
бітрейт: 640 кб/с

Субтитри:
мова: англійська
тип: програмні (м'які)
формат: *.srt
Info
General
Unique ID : 317603070100382695454246140503443592282 (0xEEF0205615F4BF318A8B9612764F545A)
Complete name : G:\The Hoax (2006) 1080p [UKR][ENG][Hurtom].
Format :
Format version : Version 4 / Version 2
File size : 7.78 GiB
Duration : 1 h 56 min
Overall bit rate : 9 603 kb/s
Movie name : The Hoax (2006) 1080p [UKR][ENG][Hurtom]
Encoded date : UTC 2018-11-21 20:59:02
Writing application : v24.0.0 ('Beyond The Pale') 64-bit
Writing library : libebml v1.3.6 + v1.4.9
Cover : Yes
Attachments : cover.jpg

Video
ID : 1
Format : AVC
Format/Info : Advanced Video Codec
Format profile : [email protected]
Format settings : CABAC / 5 Ref Frames
Format settings, CABAC : Yes
Format settings, ReFrames : 5 frames
Codec ID : V_MPEG4/ISO/AVC
Duration : 1 h 56 min
Bit rate : 8 579 kb/s
Width : 1 920 pixels
Height : 1 040 pixels
Display aspect ratio : 1.85:1
Frame rate mode : Constant
Frame rate : 23.976 FPS
Color space : YUV
Chroma subsampling : 4:2:0
Bit depth : 8 bits
Scan type : Progressive
Bits/(Pixel*Frame) : 0.179
Stream size : 6.95 GiB (89%)
Title : The Hoax (2006)
Writing library : core 130 r2273 b3065e6
Encoding settings : cabac=1 / ref=5 / deblock=1:-3:-3 / analyse=0x3:0x133 / me=umh / subme=10 / psy=1 / psy_rd=1.00:0.10 / mixed_ref=1 / me_range=32 / chroma_me=1 / trellis=2 / 8x8dct=1 / cqm=0 / deadzone=21,11 / fast_pskip=1 / chroma_qp_offset=-3 / threads=6 / lookahead_threads=1 / sliced_threads=0 / nr=0 / decimate=1 / interlaced=0 / bluray_compat=0 / constrained_intra=0 / bframes=8 / b_pyramid=2 / b_adapt=2 / b_bias=0 / direct=3 / weightb=1 / open_gop=0 / weightp=2 / keyint=250 / keyint_min=23 / scenecut=40 / intra_refresh=0 / rc_lookahead=60 / rc=2pass / mbtree=1 / bitrate=8579 / ratetol=1.0 / qcomp=0.60 / qpmin=0 / qpmax=69 / qpstep=4 / cplxblur=20.0 / qblur=0.5 / ip_ratio=1.40 / aq=1:1.00
Language : English
Default : Yes
Forced : No

Audio #1
ID : 2
Format : AC-3
Format/Info : Audio Coding 3
Codec ID : A_AC3
Duration : 1 h 56 min
Bit rate mode : Constant
Bit rate : 384 kb/s
Channel(s) : 6 channels
Channel positions : Front: L C R, Side: L R, LFE
Sampling rate : 48.0 kHz
Frame rate : 31.250 FPS (1536 SPF)
Bit depth : 16 bits
Compression mode : Lossy
Stream size : 319 MiB (4%)
Title : , 6 ch, 384 Kbps, Українська
Language : Ukrainian
Service kind : Complete Main
Default : Yes
Forced : Yes

Audio #2
ID : 3
Format : AC-3
Format/Info : Audio Coding 3
Codec ID : A_AC3
Duration : 1 h 56 min
Bit rate mode : Constant
Bit rate : 640 kb/s
Channel(s) : 6 channels
Channel positions : Front: L C R, Side: L R, LFE
Sampling rate : 48.0 kHz
Frame rate : 31.250 FPS (1536 SPF)
Bit depth : 16 bits
Compression mode : Lossy
Stream size : 531 MiB (7%)
Title : , 6 ch, 640 Kbps, Original
Language : English
Service kind : Complete Main
Default : No
Forced : No

Text
ID : 4
Format : UTF-8
Codec ID : S_TEXT/UTF8
Codec ID/Info : UTF-8 Plain Text
Duration : 1 h 48 min
Bit rate : 79 b/s
Count of elements : 1604
Stream size : 63.1 KiB (0%)
Language : English
Default : No
Forced : No

Menu
00:00:00.000 : en:Chapter 01
00:02:35.200 : en:Chapter 02
00:09:32.000 : en:Chapter 03
00:14:55.640 : en:Chapter 04
00:22:01.400 : en:Chapter 05
00:30:34.400 : en:Chapter 06
00:37:20.760 : en:Chapter 07
00:45:30.680 : en:Chapter 08
00:53:49.440 : en:Chapter 09
00:59:05.280 : en:Chapter 10
01:08:47.440 : en:Chapter 11
01:15:54.440 : en:Chapter 12
01:23:38.360 : en:Chapter 13
01:31:50.280 : en:Chapter 14
01:38:37.440 : en:Chapter 15
01:43:58.280 : en:Chapter 16
01:51:00.120 : en:Chapter 17
Скріншоти






Джерело: &
Особиста оцінка: 8 - мені сподобалося
Містифікація / The Hoax (2006) 1080p Ukr/Eng | sub Eng Містифікація / The Hoax (2006) 1080p Ukr/Eng | sub Eng


 Трекер:    Зареєстрований   

Завантажити / скачати фільм українською



відео для новачків



 Зареєстрований:   2018-11-22 07:58
 Розмір:   7.78 GB 
 Оцінка фільму:   7.8/10 (Голосів: 6)
   
Інші релізи
   Містифікація / The Hoax (2006) Ukr/Eng | sub Eng JACKUS  1 / 0   2.18 GB   2011-02-12 15:21 
bot 
робот


З нами з: 30.09.07
Востаннє: 26.05.05
Повідомлень: 25605

2018-11-21 23:41  
Тему перенесено з Фільми в HD до форуму Анонси релізів


staf777

bot 
робот


З нами з: 30.09.07
Востаннє: 26.05.05
Повідомлень: 25605

2018-11-22 07:57  
Тему перенесено з Анонси релізів до форуму Фільми в HD


staf777

waldi-hurtom 
VIP


З нами з: 07.10.12
Востаннє: 25.09.20
Повідомлень: 1177

2018-11-27 00:17  
Середненько. Особливо тягучий початок напружив, ледь пересилив себе. Можна не дивитись - небагато втратите. 6 з 10.
Ваш часовий пояс: GMT + 2 Години

Нова тема   Відповісти