Мала барабанщиця (Сезон 1) / The Little Drummer Girl (Season 1) (2018)

Нові коментарі

Нова тема   Відповісти
Автор Повідомлення
DniproFilm 
VIP


З нами з: 10.10.18
Востаннє: 15.02.19
Повідомлень: 288

2018-11-21 21:34  
Мала барабанщиця (Сезон 1) / The Little Drummer Girl (Season 1) (2018)

Мала барабанщиця (Сезон 1) / The Little Drummer Girl (Season 1) (2018)


Жанр: драма, трилер
Країна: Велика Британія, США



Кінокомпанія / телеканал: The Ink Factory, AMC Networks, British Broadcasting Corporation (BBC)
Режисер: Чхан Ук Пак
Актори/ролі озвучують: Флоренс П'ю, Олександр Скарсгард, Майкл Шеннон, Майкл Мошонов, Симона Браун, Клер Холман, Кейт Самптер, Амір Хурі, Катаріна Шютлер та інші

Сюжет:
Під час відпустки у Греції молода актриса Чарлі знайомиться з Беккєром. Доволі швидко стає зрозумілим, що чоловік має до неї геть не любовний інтерес. Насправді він - офіцер ізраїльської розвідки, який втягує Чарлі у смертельно небезпечну боротьбу між західними спецслужбами та терористами у Європі та на Ближньому Сході.


Тривалість: 1 серія: ~ 60 хв. (цілком серій: 6)
Перелік серій

1. Episode #1.1
2. Episode #1.2
3. Episode #1.3
4. Episode #1.4
5. Episode #1.5
6. Episode #1.6
Якість:
Відео:
кодек:
розмір кадру: 720x400
бітрейт: ~1800 кб/с

Аудіо # 1:
мова: українська
переклад: багатоголосий закадровий
кодек: 5.1
бітрейт: 384 кб/с

Джерело озвучення:
DniproFilm
Info

Video
ID : 0
Format : MPEG-4 Visual
Format profile : Advanced [email protected]
Format settings : BVOP2
Format settings, BVOP : 2
Format settings, QPel : No
Format settings, GMC : No warppoints
Format settings, Matrix : Default (H.263)
Muxing mode : Packed bitstream
Codec ID :
Codec ID/Hint :
Duration : 56 min 27 s
Bit rate : 1 784 kb/s
Width : 720 pixels
Height : 400 pixels
Display aspect ratio : 16:9
Frame rate : 25.000 FPS
Color space : YUV
Chroma subsampling : 4:2:0
Bit depth : 8 bits
Scan type : Progressive
Compression mode : Lossy
Bits/(Pixel*Frame) : 0.248
Stream size : 720 MiB (82%)
Writing library : 67

Audio
ID : 1
Format : AC-3
Format/Info : Audio Coding 3
Commercial name : Dolby Digital
Codec ID : 2000
Duration : 56 min 27 s
Bit rate mode : Constant
Bit rate : 384 kb/s
Channel(s) : 6 channels
Channel positions : Front: L C R, Side: L R, LFE
Sampling rate : 48.0 kHz
Frame rate : 31.250 FPS (1536 SPF)
Bit depth : 16 bits
Compression mode : Lossy
Stream size : 155 MiB (18%)
Alignment : Aligned on interleaves
Interleave, duration : 40 ms (1.00 video frame)
Interleave, preload duratio : 512 ms
Service kind : Complete Main
Скріншоти

Увага, присутня відео та аудіореклама.


Джерело: DniproFilm


Авторський реліз (завантажувати можна без реєстрації)
 Трекер:    Зареєстрований   

Завантажити / скачати серіал українською



відео для новачків



 Зареєстрований:   2018-11-27 22:52
 Розмір:   5.24 GB 
 Оцінка серіалу:   8.2/10 (Голосів: 11)
   
sinpavla 
Свій


З нами з: 15.06.12
Востаннє: 15.02.19
Повідомлень: 91

2018-11-25 10:02  
красно дякую, за барабаннмцю
DniproFilm 
VIP


З нами з: 10.10.18
Востаннє: 15.02.19
Повідомлень: 288

2018-11-26 13:43  
УВАГА! РЕЛІЗ ОНОВЛЕНО! (26.11.2018) Додана 4 серія.

DniproFilm 
VIP


З нами з: 10.10.18
Востаннє: 15.02.19
Повідомлень: 288

2018-11-27 22:53  
УВАГА! РЕЛІЗ ОНОВЛЕНО! (26.11.2018) Додано 5-6 серії (фінал сезону).

Ваш часовий пояс: GMT + 2 Години

Нова тема   Відповісти